<?xml version="1.0" standalone="no"?>
<!DOCTYPE svg PUBLIC "-//W3C//DTD SVG 1.1//EN" "http://www.w3.org/Graphics/SVG/1.1/DTD/svg11.dtd" >
<svg xmlns="http://www.w3.org/2000/svg" xmlns:xlink="http://www.w3.org/1999/xlink" version="1.1">
<metadata>
Created by FontForge 20190801 at Fri Nov 27 09:39:38 2020
 By Jimmy Wärting
Typeface (c) The Monotype Corporation plc. Data (c) The Monotype Corporation plc / Type Solutions Inc. 1990-91 All Rights Reserved
</metadata>
<defs>
<font id="CenturyGothicRegular" horiz-adv-x="1460" >
  <font-face 
    font-family="CenturyGothicRegular"
    font-weight="400"
    font-stretch="normal"
    units-per-em="2048"
    panose-1="2 11 5 2 2 2 2 2 2 4"
    ascent="1638"
    descent="-410"
    x-height="1088"
    cap-height="1471"
    bbox="-347 -628 2360 2170"
    underline-thickness="119"
    underline-position="-256"
    unicode-range="U+001D-F108"
  />
<missing-glyph horiz-adv-x="1536" 
d="M256 0v1280h1024v-1280h-1024zM288 32h960v1216h-960v-1216z" />
    <glyph glyph-name=".notdef" horiz-adv-x="1536" 
d="M256 0v1280h1024v-1280h-1024zM288 32h960v1216h-960v-1216z" />
    <glyph glyph-name="uni0000" horiz-adv-x="0" 
 />
    <glyph glyph-name="uni0000" horiz-adv-x="0" 
 />
    <glyph glyph-name="uni0009" horiz-adv-x="567" 
 />
    <glyph glyph-name="space" unicode=" " horiz-adv-x="567" 
 />
    <glyph glyph-name="exclam" unicode="!" horiz-adv-x="604" 
d="M373 1508v-1140h-145v1140h145zM302 220q51 0 87 -36t36 -88q0 -51 -36 -87.5t-87 -36.5t-87 36.5t-36 87.5q0 52 36 88t87 36z" />
    <glyph glyph-name="quotedbl" unicode="&#x22;" horiz-adv-x="633" 
d="M562 1045h-103l-22 463h148zM174 1045h-104l-22 463h148z" />
    <glyph glyph-name="numbersign" unicode="#" horiz-adv-x="1475" 
d="M1233 602v-108h-248l-72 -494h-112l72 494h-333l-76 -494h-110l76 494h-246v108h263l51 334h-253v109h269l70 468h107l-68 -468h332l68 468h112l-69 -468h224v-109h-240l-48 -334h231zM940 936h-334l-49 -334h332z" />
    <glyph glyph-name="dollar" unicode="$" horiz-adv-x="1135" 
d="M531 1574h131v-109q98 -18 167.5 -64t133.5 -136l-108 -87q-77 119 -193 144v-499q262 -138 326 -224q82 -110 82 -243q0 -110 -60.5 -201.5t-163.5 -142.5q-67 -33 -184 -48v-313h-131v313q-123 10 -197 39t-144.5 87.5t-117.5 135.5l107 81q139 -184 352 -205v619
q-157 77 -199 105q-85 58 -126 129t-41 164q0 90 45 167t122.5 125t198.5 60v103zM531 1332q-75 -6 -121 -33.5t-72.5 -74t-26.5 -102.5q0 -72 42 -122q56 -68 178 -123v455zM662 106q121 17 193.5 88t72.5 159q0 86 -55.5 159t-210.5 156v-562z" />
    <glyph glyph-name="percent" unicode="%" horiz-adv-x="1587" 
d="M1381 1536l-1072 -1638h-132l975 1492q-173 -42 -422 -42l-54 1q62 -86 62 -182q0 -137 -95.5 -245t-253.5 -108q-145 0 -244 100.5t-99 244.5q0 96 45 174.5t128 126.5t170 48q37 0 122 -18q130 -28 282 -28q112 0 211.5 14.5t258.5 59.5h118zM392 1381
q-91 0 -155 -64.5t-64 -155.5t64 -155t155 -64t155.5 64t64.5 155t-64.5 155.5t-155.5 64.5zM1195 649q143 0 244.5 -101.5t101.5 -244.5t-101.5 -244.5t-244.5 -101.5t-244.5 101.5t-101.5 244.5t101.5 244.5t244.5 101.5zM1195 522q-91 0 -155 -64t-64 -155t64 -155
t155 -64t155.5 64t64.5 155t-64.5 155t-155.5 64z" />
    <glyph glyph-name="ampersand" unicode="&#x26;" horiz-adv-x="1550" 
d="M1292 544l100 -106q-96 -85 -173 -147q51 -54 147 -151q76 -76 131 -140h-205l-189 197q-190 -144 -305 -189t-243 -45q-170 0 -273 97.5t-103 243.5q0 110 69.5 220.5t283.5 279.5q-121 146 -155.5 215.5t-34.5 132.5q0 110 85 182q98 84 244 84q92 0 168 -37t116 -99.5
t40 -132.5q0 -74 -52 -157.5t-205 -213.5l223 -234l153 -153q110 92 178 153zM647 888q107 83 161 163q38 57 38 101q0 51 -49.5 88t-131.5 37q-78 0 -127 -38t-49 -90q0 -40 20 -75q49 -85 138 -186zM629 693q-187 -141 -245 -224.5t-58 -154.5q0 -84 71 -148.5t174 -64.5
q78 0 153 32q118 51 279 166l-240 246q-60 63 -134 148z" />
    <glyph glyph-name="quotesingle" unicode="'" horiz-adv-x="405" 
d="M254 1045h-103l-22 463h148z" />
    <glyph glyph-name="parenleft" unicode="(" horiz-adv-x="756" 
d="M470 1536h162q-98 -201 -157 -469t-59 -553q0 -264 44.5 -509t122.5 -431h-154q-74 178 -118 419t-44 502q0 281 52 547.5t151 493.5z" />
    <glyph glyph-name="parenright" unicode=")" horiz-adv-x="756" 
d="M286 -426h-162q99 201 157.5 469t58.5 553q0 264 -44.5 509t-122.5 431h154q75 -178 118.5 -419.5t43.5 -502.5q0 -280 -52 -546.5t-151 -493.5z" />
    <glyph glyph-name="asterisk" unicode="*" horiz-adv-x="870" 
d="M369 1508h130l-29 -297l246 176l66 -112l-277 -125l277 -123l-66 -113l-246 174l29 -297h-130l31 297l-246 -174l-66 113l281 123l-281 125l66 112l246 -176z" />
    <glyph glyph-name="plus" unicode="+" horiz-adv-x="1241" 
d="M552 804v434h137v-434h438v-137h-438v-434h-137v434h-437v137h437z" />
    <glyph glyph-name="comma" unicode="," horiz-adv-x="567" 
d="M295 270l135 -64l-203 -378l-99 42z" />
    <glyph glyph-name="hyphen" unicode="-" horiz-adv-x="680" 
d="M65 614h550v-122h-550v122z" />
    <glyph glyph-name="hyphen" unicode="&#xad;" horiz-adv-x="680" 
d="M65 614h550v-122h-550v122z" />
    <glyph glyph-name="period" unicode="." horiz-adv-x="567" 
d="M310 220q51 0 87 -36t36 -88q0 -51 -36 -87.5t-87 -36.5t-87 36.5t-36 87.5q0 52 36 88t87 36z" />
    <glyph glyph-name="slash" unicode="/" horiz-adv-x="895" 
d="M836 1508l-611 -1708h-153l610 1708h154z" />
    <glyph glyph-name="zero" unicode="0" horiz-adv-x="1135" 
d="M65 735q0 291 62.5 450t176.5 241t255 82q143 0 259 -82.5t183.5 -247.5t67.5 -443q0 -277 -66.5 -441t-183.5 -247.5t-260 -83.5q-141 0 -254 81t-176.5 241.5t-63.5 449.5zM204 732q0 -249 44.5 -376.5t131.5 -193.5t184 -66q98 0 183 64.5t129 193.5q55 157 55 378
q0 222 -49 363.5t-135.5 207t-182.5 65.5q-98 0 -184 -65.5t-131 -193t-45 -377.5z" />
    <glyph glyph-name="one" unicode="1" horiz-adv-x="1135" 
d="M379 1471h289v-1471h-146v1327h-231z" />
    <glyph glyph-name="two" unicode="2" horiz-adv-x="1135" 
d="M237 1010h-141q6 218 145.5 358t344.5 140q203 0 328.5 -131t125.5 -309q0 -125 -60 -234.5t-233 -296.5l-366 -395h679v-142h-999l562 607q171 183 222.5 271.5t51.5 186.5q0 124 -92.5 213.5t-226.5 89.5q-141 0 -234.5 -94t-106.5 -264z" />
    <glyph glyph-name="three" unicode="3" horiz-adv-x="1135" 
d="M271 1130h-150q41 182 157 280t274 98q115 0 214.5 -52.5t154 -141.5t54.5 -186q0 -190 -189 -301q106 -43 174 -126q96 -117 96 -262q0 -125 -66 -238.5t-180 -175.5t-255 -62q-190 0 -317 109.5t-166 321.5h144q38 -143 109 -207q91 -81 232 -81q160 0 257 96t97 225
q0 86 -48.5 161t-130 113t-252.5 47v135q101 0 184 35.5t120.5 90.5t37.5 120q0 96 -76.5 166t-193.5 70q-95 0 -164 -53.5t-117 -181.5z" />
    <glyph glyph-name="four" unicode="4" horiz-adv-x="1135" 
d="M872 1508h30v-1025h178v-141h-178v-342h-147v342h-703zM755 483v613l-433 -613h433z" />
    <glyph glyph-name="five" unicode="5" horiz-adv-x="1135" 
d="M1007 1471v-140h-524l-73 -401q96 28 173 28q201 0 331.5 -134.5t130.5 -344.5q0 -145 -67 -266t-181.5 -185.5t-264.5 -64.5q-179 0 -302 109.5t-147 283.5h151q17 -85 57.5 -138t108 -85.5t141.5 -32.5q145 0 249 110t104 275q0 149 -94 242t-251 93q-130 0 -315 -79
l136 730h637z" />
    <glyph glyph-name="six" unicode="6" horiz-adv-x="1135" 
d="M751 1508l121 -79l-397 -602q80 27 150 27q175 0 297 -126.5t122 -311.5q0 -127 -59 -229.5t-167.5 -163t-233.5 -60.5q-121 0 -224.5 58.5t-162.5 164.5t-59 227q0 90 36.5 189.5t130.5 239.5zM590 725q-128 0 -218.5 -90.5t-90.5 -219.5q0 -128 90.5 -218.5
t218.5 -90.5t218.5 90.5t90.5 218.5q0 129 -90.5 219.5t-218.5 90.5z" />
    <glyph glyph-name="seven" unicode="7" horiz-adv-x="1135" 
d="M147 1471h933l-787 -1508l-121 62l680 1307h-705v139z" />
    <glyph glyph-name="eight" unicode="8" horiz-adv-x="1135" 
d="M787 807q149 -74 213.5 -169t64.5 -216q0 -170 -111 -300q-136 -159 -389 -159q-244 0 -370 139.5t-126 307.5q0 123 66 221.5t220 175.5q-108 56 -162 139t-54 178q0 96 57.5 187.5t159 144t219.5 52.5q115 0 213 -53t153.5 -144t55.5 -191t-52.5 -178t-157.5 -135z
M568 1365q-121 0 -200.5 -71.5t-79.5 -170.5q0 -98 85.5 -177.5t199.5 -79.5q73 0 138 36t101.5 98.5t36.5 125.5q0 89 -72 164t-209 75zM575 733q-152 0 -255 -98.5t-103 -229.5q0 -81 44 -153t123 -111t183 -39q161 0 256 95t95 222q0 123 -100.5 218.5t-242.5 95.5z" />
    <glyph glyph-name="nine" unicode="9" horiz-adv-x="1135" 
d="M393 -37l-121 78l397 602q-80 -26 -150 -26q-175 0 -297 126.5t-122 311.5q0 127 59 229t167.5 163t232.5 61q122 0 225.5 -59t162.5 -165t59 -226q0 -91 -36.5 -190.5t-130.5 -239.5zM553 746q129 0 219.5 90.5t90.5 218.5t-90.5 218.5t-219.5 90.5q-128 0 -218.5 -90.5
t-90.5 -218.5t90.5 -218.5t218.5 -90.5z" />
    <glyph glyph-name="colon" unicode=":" horiz-adv-x="567" 
d="M310 1116q51 0 87 -36t36 -88t-36 -88t-87 -36t-87 36t-36 88q0 51 36 87.5t87 36.5zM310 220q51 0 87 -36t36 -88q0 -51 -36 -87.5t-87 -36.5t-87 36.5t-36 87.5q0 52 36 88t87 36z" />
    <glyph glyph-name="semicolon" unicode=";" horiz-adv-x="567" 
d="M310 1116q51 0 87 -36t36 -88t-36 -88t-87 -36t-87 36t-36 88q0 51 36 87.5t87 36.5zM295 270l135 -64l-203 -378l-99 42z" />
    <glyph glyph-name="semicolon" unicode="&#x37e;" horiz-adv-x="567" 
d="M310 1116q51 0 87 -36t36 -88t-36 -88t-87 -36t-87 36t-36 88q0 51 36 87.5t87 36.5zM295 270l135 -64l-203 -378l-99 42z" />
    <glyph glyph-name="less" unicode="&#x3c;" horiz-adv-x="1241" 
d="M1137 347v-146l-1033 469v130l1033 471v-147l-839 -390z" />
    <glyph glyph-name="equal" unicode="=" horiz-adv-x="1241" 
d="M1127 1024v-137h-1012v137h1012zM1127 584v-137h-1012v137h1012z" />
    <glyph glyph-name="greater" unicode="&#x3e;" horiz-adv-x="1241" 
d="M104 347l839 387l-839 390v147l1033 -471v-130l-1033 -469v146z" />
    <glyph glyph-name="question" unicode="?" horiz-adv-x="1210" 
d="M315 1071h-145q2 202 120.5 319.5t317.5 117.5q196 0 308 -99t112 -246q0 -70 -30.5 -129.5t-92.5 -107t-217 -108.5q-195 -78 -236 -116q-42 -39 -42 -94q0 -58 56.5 -104t146.5 -46q99 0 152 50.5t65 161.5h146q-7 -167 -103.5 -259.5t-259.5 -92.5q-162 0 -258 84
t-96 207q0 60 26.5 113.5t75 89.5t182.5 91q216 88 277 132q60 44 60 126q0 87 -73.5 147t-196.5 60q-150 0 -233 -99q-58 -69 -62 -198zM607 220q51 0 87 -36t36 -88q0 -51 -36 -87.5t-87 -36.5t-87 36.5t-36 87.5q0 52 36 88t87 36z" />
    <glyph glyph-name="at" unicode="@" horiz-adv-x="1776" 
d="M1444 301h106q-134 -167 -248 -234q-162 -94 -369 -94q-219 0 -404 103.5t-288.5 282.5t-103.5 391q0 215 104.5 400t284.5 287.5t394 102.5q302 0 510 -193.5t208 -450.5q0 -187 -86.5 -322.5t-234.5 -210.5q-113 -58 -193 -58q-58 0 -92 31q-26 23 -27 80
q-34 -43 -93.5 -72t-123.5 -29q-144 0 -238 99.5t-94 263.5q0 177 114 323t314 146q88 0 147.5 -33t112.5 -115l26 138h108l-116 -654q-5 -32 -5 -41q0 -23 14 -36t36 -13q59 0 153.5 68.5t147 176t52.5 238.5q0 254 -197 421q-184 155 -448 155q-196 0 -355.5 -89.5
t-252 -252t-92.5 -351.5q0 -191 93 -352.5t257.5 -253.5t362.5 -92q145 0 263 52t253 188zM838 428q66 0 124 41.5t92 124.5q44 109 44 219q0 101 -56.5 164t-146.5 63q-120 0 -207.5 -98.5t-87.5 -245.5q0 -123 66.5 -195.5t171.5 -72.5z" />
    <glyph glyph-name="A" unicode="A" horiz-adv-x="1515" 
d="M780 1471l686 -1471h-158l-231 484h-634l-230 -484h-164l695 1471h36zM762 1159l-253 -533h503z" />
    <glyph glyph-name="B" unicode="B" horiz-adv-x="1176" 
d="M183 1471h290q175 0 269 -41.5t148.5 -127.5t54.5 -191q0 -98 -48 -178.5t-141 -130.5q115 -39 177 -91.5t96.5 -127t34.5 -161.5q0 -177 -129.5 -299.5t-347.5 -122.5h-404v1471zM327 1327v-471h84q153 0 225 28.5t114 90t42 136.5q0 101 -70.5 158.5t-224.5 57.5h-170z
M327 708v-564h182q161 0 236 31.5t120.5 98.5t45.5 145q0 98 -64 171t-176 100q-75 18 -261 18h-83z" />
    <glyph glyph-name="C" unicode="C" horiz-adv-x="1665" 
d="M1549 1198l-116 -89q-96 125 -230.5 189.5t-295.5 64.5q-176 0 -326 -84.5t-232.5 -227t-82.5 -320.5q0 -269 184.5 -449t465.5 -180q309 0 517 242l116 -88q-110 -140 -274.5 -216.5t-367.5 -76.5q-386 0 -609 257q-187 217 -187 524q0 323 226.5 543.5t567.5 220.5
q206 0 372 -81.5t272 -228.5z" />
    <glyph glyph-name="D" unicode="D" horiz-adv-x="1524" 
d="M179 0v1471h305q330 0 479 -53q214 -75 334.5 -260t120.5 -441q0 -221 -95.5 -389t-248 -248t-427.5 -80h-468zM320 139h170q305 0 423 38q166 54 261 194.5t95 343.5q0 213 -103 364t-287 207q-138 42 -455 42h-104v-1189z" />
    <glyph glyph-name="E" unicode="E" horiz-adv-x="1098" 
d="M180 1471h843v-145h-696v-460h690v-144h-690v-577h690v-145h-837v1471z" />
    <glyph glyph-name="F" unicode="F" horiz-adv-x="993" 
d="M179 1471h737v-145h-591v-460h591v-145h-591v-721h-146v1471z" />
    <glyph glyph-name="G" unicode="G" horiz-adv-x="1786" 
d="M1598 1224l-114 -108q-123 121 -269.5 183.5t-285.5 62.5q-173 0 -329.5 -85t-242.5 -230.5t-86 -307.5q0 -166 89 -315.5t246 -235t344 -85.5q227 0 384 128t186 332h-469v142h634q-2 -341 -202.5 -541.5t-536.5 -200.5q-408 0 -646 278q-183 214 -183 495
q0 209 105 389t288 281.5t414 101.5q187 0 352 -67.5t322 -216.5z" />
    <glyph glyph-name="H" unicode="H" horiz-adv-x="1399" 
d="M177 1471h148v-617h748v617h148v-1471h-148v710h-748v-710h-148v1471z" />
    <glyph glyph-name="I" unicode="I" horiz-adv-x="463" 
d="M158 1471h147v-1471h-147v1471z" />
    <glyph glyph-name="J" unicode="J" horiz-adv-x="987" 
d="M660 1471h148v-993q0 -229 -35.5 -318.5t-118.5 -143t-201 -53.5q-89 0 -175.5 34.5t-191.5 121.5l78 117q115 -81 191 -114q50 -22 98 -22q63 0 114.5 38t72 101t20.5 244v988z" />
    <glyph glyph-name="K" unicode="K" horiz-adv-x="1210" 
d="M179 1471h150v-552l587 552h199l-707 -660l762 -811h-195l-646 686v-686h-150v1471z" />
    <glyph glyph-name="L" unicode="L" horiz-adv-x="946" 
d="M179 1471h148v-1329h565v-142h-713v1471z" />
    <glyph glyph-name="M" unicode="M" horiz-adv-x="1882" 
d="M112 0l209 1471h24l598 -1207l592 1207h24l211 -1471h-145l-144 1052l-520 -1052h-37l-527 1060l-143 -1060h-142z" />
    <glyph glyph-name="N" unicode="N" horiz-adv-x="1515" 
d="M180 0v1471h32l978 -1126v1126h145v-1471h-33l-970 1112v-1112h-152z" />
    <glyph glyph-name="O" unicode="O" horiz-adv-x="1780" 
d="M880 1508q334 0 559 -223t225 -549q0 -323 -224.5 -548t-547.5 -225q-327 0 -552 224t-225 542q0 212 102.5 393t279.5 283.5t383 102.5zM887 1364q-163 0 -309 -85t-228 -229t-82 -321q0 -262 181.5 -442.5t437.5 -180.5q171 0 316.5 83t227 227t81.5 320
q0 175 -81.5 316.5t-229.5 226.5t-314 85z" />
    <glyph glyph-name="P" unicode="P" horiz-adv-x="1212" 
d="M178 1471h293q252 0 340 -22q126 -31 206 -127.5t80 -242.5q0 -147 -78 -242.5t-215 -128.5q-100 -24 -374 -24h-105v-684h-147v1471zM325 1328v-500l249 -3q151 0 221 27.5t110 89t40 137.5q0 74 -40 135.5t-105.5 87.5t-214.5 26h-260z" />
    <glyph glyph-name="Q" unicode="Q" horiz-adv-x="1784" 
d="M1413 160l218 -276h-181l-150 190q-180 -111 -406 -111q-327 0 -552 224t-225 542q0 212 103 393.5t280.5 283.5t389.5 102q327 0 551.5 -223.5t224.5 -549.5q0 -170 -61.5 -311t-191.5 -264zM1322 275q192 187 192 461q0 175 -81.5 316.5t-229.5 226.5t-312 85
q-165 0 -311 -84.5t-228 -229t-82 -321.5q0 -262 181 -442.5t437 -180.5q175 0 320 85l-328 416h179z" />
    <glyph glyph-name="R" unicode="R" horiz-adv-x="1243" 
d="M187 1471h293q245 0 332 -20q131 -30 213 -128.5t82 -242.5q0 -120 -56.5 -211t-161.5 -137.5t-290 -47.5l529 -684h-182l-528 684h-84v-684h-147v1471zM334 1327v-500l253 -2q147 0 217.5 28t110 89.5t39.5 137.5q0 74 -40 134.5t-105 86.5t-216 26h-259z" />
    <glyph glyph-name="S" unicode="S" horiz-adv-x="1020" 
d="M27 274l125 75q132 -243 305 -243q74 0 139 34.5t99 92.5t34 123q0 74 -50 145q-69 98 -252 236q-184 139 -229 201q-78 104 -78 225q0 96 46 175t129.5 124.5t181.5 45.5q104 0 194.5 -51.5t191.5 -189.5l-120 -91q-83 110 -141.5 145t-127.5 35q-89 0 -145.5 -54
t-56.5 -133q0 -48 20 -93t73 -98q29 -28 190 -147q191 -141 262 -251t71 -221q0 -160 -121.5 -278t-295.5 -118q-134 0 -243 71.5t-201 239.5z" />
    <glyph glyph-name="T" unicode="T" horiz-adv-x="872" 
d="M33 1328v143h807v-143h-328v-1328h-150v1328h-329z" />
    <glyph glyph-name="U" unicode="U" horiz-adv-x="1341" 
d="M184 1471h147v-888q0 -158 6 -197q11 -87 51 -145.5t123 -98t167 -39.5q73 0 140 31t112 86t66 133q15 56 15 230v888h147v-888q0 -197 -38.5 -318.5t-154 -211.5t-279.5 -90q-178 0 -305 85t-170 225q-27 86 -27 310v888z" />
    <glyph glyph-name="V" unicode="V" horiz-adv-x="1438" 
d="M67 1471h160l487 -1137l496 1137h160l-640 -1471h-32z" />
    <glyph glyph-name="W" unicode="W" horiz-adv-x="1966" 
d="M96 1471h151l299 -1060l422 1060h30l417 -1060l305 1060h150l-422 -1471h-28l-436 1113l-445 -1113h-28z" />
    <glyph glyph-name="X" unicode="X" horiz-adv-x="1247" 
d="M101 1471h172l352 -574l355 574h170l-438 -713l467 -758h-172l-382 617l-384 -617h-172l469 758z" />
    <glyph glyph-name="Y" unicode="Y" horiz-adv-x="1212" 
d="M63 1471h170l376 -606l370 606h170l-466 -768v-703h-145v703z" />
    <glyph glyph-name="Z" unicode="Z" horiz-adv-x="983" 
d="M122 1329v142h776l-615 -1328h584v-143h-811l619 1329h-553z" />
    <glyph glyph-name="bracketleft" unicode="[" horiz-adv-x="719" 
d="M290 1508h336v-142h-196v-1627h196v-137h-336v1906z" />
    <glyph glyph-name="backslash" unicode="\" horiz-adv-x="1239" 
d="M220 1508l952 -1708h-153l-953 1708h154z" />
    <glyph glyph-name="bracketright" unicode="]" horiz-adv-x="719" 
d="M429 -398h-336v142h195v1627h-195v137h336v-1906z" />
    <glyph glyph-name="asciicircum" unicode="^" horiz-adv-x="1376" 
d="M629 1471h118l510 -1106h-133l-439 952l-436 -952h-129z" />
    <glyph glyph-name="underscore" unicode="_" horiz-adv-x="1024" 
d="M-12 -154h1048v-102h-1048v102z" />
    <glyph glyph-name="grave" unicode="`" horiz-adv-x="774" 
d="M326 1598l218 -308h-138l-295 308h215z" />
    <glyph glyph-name="a" unicode="a" horiz-adv-x="1399" 
d="M1240 1088v-1088h-138v187q-88 -107 -197.5 -161t-239.5 -54q-231 0 -394.5 167.5t-163.5 407.5q0 235 165 402t397 167q134 0 242.5 -57t190.5 -171v200h138zM680 981q-117 0 -216 -57.5t-157.5 -161.5t-58.5 -220q0 -115 59 -220t158.5 -163.5t213.5 -58.5
q115 0 218 58t158.5 157t55.5 223q0 189 -124.5 316t-306.5 127z" />
    <glyph glyph-name="b" unicode="b" horiz-adv-x="1397" 
d="M165 0v1508h139v-607q88 108 197 161.5t239 53.5q231 0 394.5 -167.5t163.5 -406.5q0 -236 -165 -403t-397 -167q-133 0 -241 57t-191 171v-200h-139zM725 107q117 0 216 57.5t157.5 161.5t58.5 220t-59 221t-158.5 163.5t-212.5 58.5q-115 0 -218.5 -58.5t-159 -157.5
t-55.5 -223q0 -189 124.5 -316t306.5 -127z" />
    <glyph glyph-name="c" unicode="c" horiz-adv-x="1325" 
d="M1212 862l-111 -69q-144 191 -393 191q-199 0 -330.5 -128t-131.5 -311q0 -119 60.5 -224t166 -163t236.5 -58q240 0 392 191l111 -73q-78 -117 -209.5 -181.5t-299.5 -64.5q-258 0 -428 164t-170 399q0 158 79.5 293.5t218.5 211.5t311 76q108 0 208.5 -33t170.5 -86
t119 -135z" />
    <glyph glyph-name="d" unicode="d" horiz-adv-x="1403" 
d="M1242 1508v-1508h-138v187q-88 -107 -197.5 -161t-239.5 -54q-231 0 -394.5 167.5t-163.5 407.5q0 235 165 402t397 167q134 0 242.5 -57t190.5 -171v620h138zM682 981q-117 0 -216 -57.5t-157.5 -161.5t-58.5 -220q0 -115 59 -220t158.5 -163.5t213.5 -58.5
q115 0 218 58t158.5 157t55.5 223q0 189 -124.5 316t-306.5 127z" />
    <glyph glyph-name="e" unicode="e" horiz-adv-x="1331" 
d="M1072 361l118 -62q-58 -114 -134 -184t-171 -106.5t-215 -36.5q-266 0 -416 174.5t-150 394.5q0 207 127 369q161 206 431 206q278 0 444 -211q118 -149 120 -372h-978q4 -190 121 -311.5t289 -121.5q83 0 161.5 29t133.5 77t119 155zM1072 654q-28 112 -81.5 179
t-141.5 108t-185 41q-160 0 -275 -103q-84 -75 -127 -225h810z" />
    <glyph glyph-name="f" unicode="f" horiz-adv-x="643" 
d="M604 1508v-137q-77 33 -132 33q-41 0 -68 -16.5t-34 -38t-7 -114.5v-147h227v-120h-228v-968h-140v968h-143v120h143v170q0 117 21.5 167t73 80.5t124.5 30.5q68 0 163 -28z" />
    <glyph glyph-name="g" unicode="g" horiz-adv-x="1378" 
d="M1093 1088h141v-867q0 -229 -40 -335q-55 -150 -191 -231t-327 -81q-140 0 -251.5 39.5t-181.5 106t-129 194.5h152q62 -108 160 -160t243 -52q143 0 241.5 53.5t140.5 134.5t42 261v56q-79 -100 -193 -153.5t-242 -53.5q-150 0 -282 74.5t-204 200.5t-72 277t75 281.5
t207.5 206.5t279.5 76q122 0 227.5 -50.5t203.5 -166.5v189zM680 981q-119 0 -221 -57.5t-160 -159t-58 -219.5q0 -179 120 -296t311 -117q193 0 310.5 116t117.5 305q0 123 -54 219.5t-153 152.5t-213 56z" />
    <glyph glyph-name="h" unicode="h" horiz-adv-x="1249" 
d="M156 1508h140v-615q85 112 187 167.5t221 55.5q122 0 216.5 -62t139.5 -166.5t45 -327.5v-560h-140v519q0 188 -15 251q-26 108 -94.5 162.5t-179.5 54.5q-127 0 -227.5 -84t-132.5 -208q-20 -80 -20 -296v-399h-140v1508z" />
    <glyph glyph-name="i" unicode="i" horiz-adv-x="410" 
d="M205 1536q48 0 82 -34t34 -82q0 -47 -34 -81t-82 -34q-47 0 -81 34t-34 81q0 48 34 82t81 34zM135 1088h141v-1088h-141v1088z" />
    <glyph glyph-name="j" unicode="j" horiz-adv-x="416" 
d="M208 1536q48 0 81.5 -34t33.5 -82q0 -47 -33.5 -81t-81.5 -34t-81.5 34t-33.5 81q0 48 33.5 82t81.5 34zM139 1088h142v-1252q0 -137 -49.5 -199.5t-135.5 -62.5q-71 0 -160 34v126q56 -29 101 -29q57 0 85 47q17 30 17 125v1211z" />
    <glyph glyph-name="k" unicode="k" horiz-adv-x="1028" 
d="M155 1508h141v-858l503 438h206l-597 -519l632 -569h-198l-546 489v-489h-141v1508z" />
    <glyph glyph-name="l" unicode="l" horiz-adv-x="410" 
d="M135 1508h140v-1508h-140v1508z" />
    <glyph glyph-name="m" unicode="m" horiz-adv-x="1921" 
d="M155 1088h139v-188q73 104 150 152q106 64 223 64q79 0 150 -31t116 -82.5t78 -147.5q70 128 175 194.5t226 66.5q113 0 199.5 -57t128.5 -159t42 -306v-594h-143v594q0 175 -25 240.5t-85.5 105.5t-144.5 40q-102 0 -186.5 -60t-123.5 -160t-39 -334v-426h-139v557
q0 197 -24.5 267.5t-85.5 113t-145 42.5q-97 0 -181.5 -58.5t-125 -157.5t-40.5 -303v-461h-139v1088z" />
    <glyph glyph-name="n" unicode="n" horiz-adv-x="1249" 
d="M156 1088h140v-195q84 112 186 167.5t222 55.5q122 0 216.5 -62t139.5 -167t45 -327v-560h-139v519q0 188 -16 251q-25 108 -94 162.5t-180 54.5q-127 0 -227.5 -84t-132.5 -208q-20 -81 -20 -296v-399h-140v1088z" />
    <glyph glyph-name="o" unicode="o" horiz-adv-x="1341" 
d="M671 1116q251 0 416 -182q150 -166 150 -393q0 -228 -158.5 -398.5t-407.5 -170.5q-250 0 -408.5 170.5t-158.5 398.5q0 226 150 392q165 183 417 183zM671 979q-174 0 -299 -129t-125 -312q0 -118 57 -220t154 -157.5t213 -55.5t213 55.5t154 157.5t57 220
q0 183 -125.5 312t-298.5 129z" />
    <glyph glyph-name="p" unicode="p" horiz-adv-x="1397" 
d="M158 1088h139v-200q83 114 191 171t241 57q232 0 397 -167t165 -402q0 -240 -163.5 -407.5t-394.5 -167.5q-130 0 -239 54t-197 161v-585h-139v1486zM718 981q-182 0 -306.5 -127t-124.5 -316q0 -124 55.5 -223t159 -157t218.5 -58q113 0 212.5 58.5t158.5 163.5t59 220
q0 116 -58.5 220t-157.5 161.5t-216 57.5z" />
    <glyph glyph-name="q" unicode="q" horiz-adv-x="1397" 
d="M1239 1088v-1486h-138v585q-88 -107 -197.5 -161t-239.5 -54q-231 0 -394.5 167.5t-163.5 407.5q0 235 165 402t397 167q134 0 242.5 -57t190.5 -171v200h138zM679 981q-117 0 -216 -57.5t-157.5 -161.5t-58.5 -220q0 -115 59 -220t158.5 -163.5t213.5 -58.5
q115 0 218 58t158.5 157t55.5 223q0 189 -124.5 316t-306.5 127z" />
    <glyph glyph-name="r" unicode="r" horiz-adv-x="616" 
d="M103 1088h143v-159q64 94 135 140.5t148 46.5q58 0 124 -37l-73 -118q-44 19 -74 19q-70 0 -135 -57.5t-99 -178.5q-26 -93 -26 -376v-368h-143v1088z" />
    <glyph glyph-name="s" unicode="s" horiz-adv-x="795" 
d="M703 969l-90 -93q-112 109 -219 109q-68 0 -116.5 -45t-48.5 -105q0 -53 40 -101q40 -49 168 -115q156 -81 212 -156q55 -76 55 -171q0 -134 -94 -227t-235 -93q-94 0 -179.5 41t-141.5 113l88 100q107 -121 227 -121q84 0 143 54t59 127q0 60 -39 107q-39 46 -176 116
q-147 76 -200 150t-53 169q0 124 84.5 206t213.5 82q150 0 302 -147z" />
    <glyph glyph-name="t" unicode="t" horiz-adv-x="694" 
d="M278 1492h141v-404h222v-120h-222v-968h-141v968h-191v120h191v404z" />
    <glyph glyph-name="u" unicode="u" horiz-adv-x="1245" 
d="M138 1088h141v-508q0 -186 20 -256q30 -100 114.5 -158t201.5 -58t198.5 56.5t112.5 148.5q21 63 21 267v508h143v-534q0 -225 -52.5 -339t-158 -178.5t-264.5 -64.5t-265.5 64.5t-159 180t-52.5 347.5v524z" />
    <glyph glyph-name="v" unicode="v" horiz-adv-x="1135" 
d="M53 1088h149l364 -792l361 792h150l-498 -1088h-25z" />
    <glyph glyph-name="w" unicode="w" horiz-adv-x="1702" 
d="M9 1088h144l333 -790l349 790h25l348 -790l339 790h146l-472 -1088h-27l-346 779l-349 -779h-26z" />
    <glyph glyph-name="x" unicode="x" horiz-adv-x="983" 
d="M32 1088h168l288 -403l288 403h168l-372 -517l419 -571h-170l-333 457l-328 -457h-167l412 571z" />
    <glyph glyph-name="y" unicode="y" horiz-adv-x="1098" 
d="M39 1088h148l374 -838l363 838h149l-649 -1486h-148l210 480z" />
    <glyph glyph-name="z" unicode="z" horiz-adv-x="870" 
d="M67 1088h799l-616 -964h596v-124h-837l616 965h-558v123z" />
    <glyph glyph-name="braceleft" unicode="{" horiz-adv-x="719" 
d="M75 591q61 2 99 24q49 29 74.5 80t30.5 144q2 46 3.5 211t21.5 236t62 113t107 61q39 11 125 11h56v-157h-31q-105 0 -138.5 -38.5t-33.5 -167.5q0 -233 -7 -297q-13 -123 -58.5 -188.5t-143.5 -112.5q110 -47 159.5 -141.5t49.5 -309.5q0 -192 4 -227q6 -54 25 -83
q14 -20 44.5 -31.5t129.5 -11.5v-157h-56q-100 0 -146 17q-67 25 -107.5 80.5t-52.5 148.5q-9 66 -10 246q-1 184 -20.5 249t-66.5 100.5t-120 37.5v163z" />
    <glyph glyph-name="bar" unicode="|" horiz-adv-x="1376" 
d="M616 1508h143v-1906h-143v1906z" />
    <glyph glyph-name="braceright" unicode="}" horiz-adv-x="719" 
d="M644 591v-163q-61 -1 -99 -23q-49 -29 -74.5 -80t-30.5 -144q-2 -46 -3.5 -211.5t-21.5 -236t-62 -113t-107 -60.5q-39 -11 -125 -11h-56v157h31q105 0 138.5 38t33.5 167q0 239 8 304q14 121 63.5 189t137.5 106q-117 56 -163 147.5t-46 302.5q0 221 -9 259
q-11 51 -42.5 73t-120.5 22h-31v157h56q100 0 146 -18q67 -24 107.5 -80t52.5 -148q9 -66 10 -246q1 -184 20.5 -249.5t66.5 -101t120 -37.5z" />
    <glyph glyph-name="asciitilde" unicode="~" horiz-adv-x="1241" 
d="M1128 837v-162q-112 -63 -160.5 -79.5t-91.5 -16.5q-95 0 -265 77q-132 60 -168.5 71.5t-68.5 11.5q-44 0 -97 -19t-165 -86v160q110 62 159 79t95 17q97 0 268 -81q118 -56 161.5 -69.5t78.5 -13.5q42 0 85 16.5t169 94.5z" />
    <glyph glyph-name="Adieresis" unicode="&#xc4;" horiz-adv-x="1515" 
d="M780 1471l686 -1471h-158l-231 484h-634l-230 -484h-164l695 1471h36zM762 1159l-253 -533h503zM554 1816q48 0 82 -34t34 -82t-34 -82t-82 -34t-82 34t-34 82t34 82t82 34zM962 1816q48 0 82 -34t34 -82t-34 -82t-82 -34t-82 34t-34 82t34 82t82 34z" />
    <glyph glyph-name="Aring" unicode="&#xc5;" horiz-adv-x="1515" 
d="M780 1471l686 -1471h-158l-231 484h-634l-230 -484h-164l695 1471h36zM762 1159l-253 -533h503zM757 1989q88 0 150.5 -62.5t62.5 -151.5q0 -88 -62 -150.5t-151 -62.5q-88 0 -150.5 62.5t-62.5 150.5q0 89 62.5 151.5t150.5 62.5zM756 1888q-46 0 -78 -32.5t-32 -77.5
t32 -77.5t78 -32.5q45 0 77 32.5t32 77.5t-32 77.5t-77 32.5z" />
    <glyph glyph-name="Ccedilla" unicode="&#xc7;" horiz-adv-x="1665" 
d="M1549 1198l-116 -89q-96 125 -230.5 189.5t-295.5 64.5q-176 0 -326 -84.5t-232.5 -227t-82.5 -320.5q0 -269 184.5 -449t465.5 -180q309 0 517 242l116 -88q-110 -140 -274.5 -216.5t-367.5 -76.5q-386 0 -609 257q-187 217 -187 524q0 323 226.5 543.5t567.5 220.5
q206 0 372 -81.5t272 -228.5zM811 0h88l-17 -118q23 3 38 3q49 0 82 -30.5t33 -76.5q0 -66 -60 -112t-169 -46q-89 0 -167 30l22 69q64 -20 120 -20q75 0 105 18.5t30 46.5q0 17 -16.5 30t-45.5 13q-24 0 -70 -9z" />
    <glyph glyph-name="Eacute" unicode="&#xc9;" horiz-adv-x="1098" 
d="M180 1471h843v-145h-696v-460h690v-144h-690v-577h690v-145h-837v1471zM677 1895h215l-295 -308h-138z" />
    <glyph glyph-name="Ntilde" unicode="&#xd1;" horiz-adv-x="1515" 
d="M180 0v1471h32l978 -1126v1126h145v-1471h-33l-970 1112v-1112h-152zM1054 1789l70 -97q-72 -52 -121.5 -70t-104.5 -18q-72 0 -148 37q-65 32 -83 37q-24 7 -52 7q-35 0 -66.5 -12.5t-91.5 -56.5l-66 102q91 97 225 97q64 0 153 -40q85 -39 134 -39q55 0 151 53z" />
    <glyph glyph-name="Odieresis" unicode="&#xd6;" horiz-adv-x="1780" 
d="M880 1508q334 0 559 -223t225 -549q0 -323 -224.5 -548t-547.5 -225q-327 0 -552 224t-225 542q0 212 102.5 393t279.5 283.5t383 102.5zM887 1364q-163 0 -309 -85t-228 -229t-82 -321q0 -262 181.5 -442.5t437.5 -180.5q171 0 316.5 83t227 227t81.5 320
q0 175 -81.5 316.5t-229.5 226.5t-314 85zM686 1816q48 0 82 -34t34 -82t-34 -82t-82 -34t-82 34t-34 82t34 82t82 34zM1094 1816q48 0 82 -34t34 -82t-34 -82t-82 -34t-82 34t-34 82t34 82t82 34z" />
    <glyph glyph-name="Udieresis" unicode="&#xdc;" horiz-adv-x="1341" 
d="M184 1471h147v-888q0 -158 6 -197q11 -87 51 -145.5t123 -98t167 -39.5q73 0 140 31t112 86t66 133q15 56 15 230v888h147v-888q0 -197 -38.5 -318.5t-154 -211.5t-279.5 -90q-178 0 -305 85t-170 225q-27 86 -27 310v888zM467 1816q48 0 82 -34t34 -82t-34 -82t-82 -34
t-82 34t-34 82t34 82t82 34zM875 1816q48 0 82 -34t34 -82t-34 -82t-82 -34t-82 34t-34 82t34 82t82 34z" />
    <glyph glyph-name="aacute" unicode="&#xe1;" horiz-adv-x="1399" 
d="M1240 1088v-1088h-138v187q-88 -107 -197.5 -161t-239.5 -54q-231 0 -394.5 167.5t-163.5 407.5q0 235 165 402t397 167q134 0 242.5 -57t190.5 -171v200h138zM680 981q-117 0 -216 -57.5t-157.5 -161.5t-58.5 -220q0 -115 59 -220t158.5 -163.5t213.5 -58.5
q115 0 218 58t158.5 157t55.5 223q0 189 -124.5 316t-306.5 127zM767 1598h215l-295 -308h-138z" />
    <glyph glyph-name="agrave" unicode="&#xe0;" horiz-adv-x="1399" 
d="M1240 1088v-1088h-138v187q-88 -107 -197.5 -161t-239.5 -54q-231 0 -394.5 167.5t-163.5 407.5q0 235 165 402t397 167q134 0 242.5 -57t190.5 -171v200h138zM680 981q-117 0 -216 -57.5t-157.5 -161.5t-58.5 -220q0 -115 59 -220t158.5 -163.5t213.5 -58.5
q115 0 218 58t158.5 157t55.5 223q0 189 -124.5 316t-306.5 127zM639 1598l218 -308h-138l-295 308h215z" />
    <glyph glyph-name="acircumflex" unicode="&#xe2;" horiz-adv-x="1399" 
d="M1240 1088v-1088h-138v187q-88 -107 -197.5 -161t-239.5 -54q-231 0 -394.5 167.5t-163.5 407.5q0 235 165 402t397 167q134 0 242.5 -57t190.5 -171v200h138zM680 981q-117 0 -216 -57.5t-157.5 -161.5t-58.5 -220q0 -115 59 -220t158.5 -163.5t213.5 -58.5
q115 0 218 58t158.5 157t55.5 223q0 189 -124.5 316t-306.5 127zM633 1542h139l290 -257h-180l-176 152l-184 -152h-186z" />
    <glyph glyph-name="adieresis" unicode="&#xe4;" horiz-adv-x="1399" 
d="M1240 1088v-1088h-138v187q-88 -107 -197.5 -161t-239.5 -54q-231 0 -394.5 167.5t-163.5 407.5q0 235 165 402t397 167q134 0 242.5 -57t190.5 -171v200h138zM680 981q-117 0 -216 -57.5t-157.5 -161.5t-58.5 -220q0 -115 59 -220t158.5 -163.5t213.5 -58.5
q115 0 218 58t158.5 157t55.5 223q0 189 -124.5 316t-306.5 127zM496 1518q48 0 82 -34t34 -82t-34 -82t-82 -34t-82 34t-34 82t34 82t82 34zM904 1518q48 0 82 -34t34 -82t-34 -82t-82 -34t-82 34t-34 82t34 82t82 34z" />
    <glyph glyph-name="atilde" unicode="&#xe3;" horiz-adv-x="1399" 
d="M1240 1088v-1088h-138v187q-88 -107 -197.5 -161t-239.5 -54q-231 0 -394.5 167.5t-163.5 407.5q0 235 165 402t397 167q134 0 242.5 -57t190.5 -171v200h138zM680 981q-117 0 -216 -57.5t-157.5 -161.5t-58.5 -220q0 -115 59 -220t158.5 -163.5t213.5 -58.5
q115 0 218 58t158.5 157t55.5 223q0 189 -124.5 316t-306.5 127zM996 1492l70 -97q-72 -52 -121.5 -70t-104.5 -18q-72 0 -148 37q-65 32 -83 37q-24 7 -52 7q-35 0 -66.5 -12.5t-91.5 -56.5l-66 102q91 97 225 97q64 0 153 -40q85 -39 134 -39q55 0 151 53z" />
    <glyph glyph-name="aring" unicode="&#xe5;" horiz-adv-x="1399" 
d="M1240 1088v-1088h-138v187q-88 -107 -197.5 -161t-239.5 -54q-231 0 -394.5 167.5t-163.5 407.5q0 235 165 402t397 167q134 0 242.5 -57t190.5 -171v200h138zM680 981q-117 0 -216 -57.5t-157.5 -161.5t-58.5 -220q0 -115 59 -220t158.5 -163.5t213.5 -58.5
q115 0 218 58t158.5 157t55.5 223q0 189 -124.5 316t-306.5 127zM699 1691q88 0 150.5 -62.5t62.5 -151.5q0 -88 -62 -150.5t-151 -62.5q-88 0 -150.5 62.5t-62.5 150.5q0 89 62.5 151.5t150.5 62.5zM698 1590q-46 0 -78 -32.5t-32 -77.5t32 -77.5t78 -32.5q45 0 77 32.5
t32 77.5t-32 77.5t-77 32.5z" />
    <glyph glyph-name="ccedilla" unicode="&#xe7;" horiz-adv-x="1325" 
d="M1212 862l-111 -69q-144 191 -393 191q-199 0 -330.5 -128t-131.5 -311q0 -119 60.5 -224t166 -163t236.5 -58q240 0 392 191l111 -73q-78 -117 -209.5 -181.5t-299.5 -64.5q-258 0 -428 164t-170 399q0 158 79.5 293.5t218.5 211.5t311 76q108 0 208.5 -33t170.5 -86
t119 -135zM642 0h88l-17 -118q23 3 38 3q49 0 82 -30.5t33 -76.5q0 -66 -60 -112t-169 -46q-89 0 -167 30l22 69q64 -20 120 -20q75 0 105 18.5t30 46.5q0 17 -16.5 30t-45.5 13q-24 0 -70 -9z" />
    <glyph glyph-name="eacute" unicode="&#xe9;" horiz-adv-x="1331" 
d="M1072 361l118 -62q-58 -114 -134 -184t-171 -106.5t-215 -36.5q-266 0 -416 174.5t-150 394.5q0 207 127 369q161 206 431 206q278 0 444 -211q118 -149 120 -372h-978q4 -190 121 -311.5t289 -121.5q83 0 161.5 29t133.5 77t119 155zM1072 654q-28 112 -81.5 179
t-141.5 108t-185 41q-160 0 -275 -103q-84 -75 -127 -225h810zM734 1598h215l-295 -308h-138z" />
    <glyph glyph-name="egrave" unicode="&#xe8;" horiz-adv-x="1331" 
d="M1072 361l118 -62q-58 -114 -134 -184t-171 -106.5t-215 -36.5q-266 0 -416 174.5t-150 394.5q0 207 127 369q161 206 431 206q278 0 444 -211q118 -149 120 -372h-978q4 -190 121 -311.5t289 -121.5q83 0 161.5 29t133.5 77t119 155zM1072 654q-28 112 -81.5 179
t-141.5 108t-185 41q-160 0 -275 -103q-84 -75 -127 -225h810zM605 1598l218 -308h-138l-295 308h215z" />
    <glyph glyph-name="ecircumflex" unicode="&#xea;" horiz-adv-x="1331" 
d="M1072 361l118 -62q-58 -114 -134 -184t-171 -106.5t-215 -36.5q-266 0 -416 174.5t-150 394.5q0 207 127 369q161 206 431 206q278 0 444 -211q118 -149 120 -372h-978q4 -190 121 -311.5t289 -121.5q83 0 161.5 29t133.5 77t119 155zM1072 654q-28 112 -81.5 179
t-141.5 108t-185 41q-160 0 -275 -103q-84 -75 -127 -225h810zM600 1542h139l290 -257h-180l-176 152l-184 -152h-186z" />
    <glyph glyph-name="edieresis" unicode="&#xeb;" horiz-adv-x="1331" 
d="M1072 361l118 -62q-58 -114 -134 -184t-171 -106.5t-215 -36.5q-266 0 -416 174.5t-150 394.5q0 207 127 369q161 206 431 206q278 0 444 -211q118 -149 120 -372h-978q4 -190 121 -311.5t289 -121.5q83 0 161.5 29t133.5 77t119 155zM1072 654q-28 112 -81.5 179
t-141.5 108t-185 41q-160 0 -275 -103q-84 -75 -127 -225h810zM462 1518q48 0 82 -34t34 -82t-34 -82t-82 -34t-82 34t-34 82t34 82t82 34zM870 1518q48 0 82 -34t34 -82t-34 -82t-82 -34t-82 34t-34 82t34 82t82 34z" />
    <glyph glyph-name="iacute" unicode="&#xed;" horiz-adv-x="410" 
d="M135 1088h141v-1088h-141v1088zM273 1598h215l-295 -308h-138z" />
    <glyph glyph-name="igrave" unicode="&#xec;" horiz-adv-x="410" 
d="M135 1088h141v-1088h-141v1088zM144 1598l218 -308h-138l-295 308h215z" />
    <glyph glyph-name="icircumflex" unicode="&#xee;" horiz-adv-x="410" 
d="M135 1088h141v-1088h-141v1088zM139 1542h139l290 -257h-180l-176 152l-184 -152h-186z" />
    <glyph glyph-name="idieresis" unicode="&#xef;" horiz-adv-x="410" 
d="M135 1088h141v-1088h-141v1088zM1 1518q48 0 82 -34t34 -82t-34 -82t-82 -34t-82 34t-34 82t34 82t82 34zM409 1518q48 0 82 -34t34 -82t-34 -82t-82 -34t-82 34t-34 82t34 82t82 34z" />
    <glyph glyph-name="ntilde" unicode="&#xf1;" horiz-adv-x="1249" 
d="M156 1088h140v-195q84 112 186 167.5t222 55.5q122 0 216.5 -62t139.5 -167t45 -327v-560h-139v519q0 188 -16 251q-25 108 -94 162.5t-180 54.5q-127 0 -227.5 -84t-132.5 -208q-20 -81 -20 -296v-399h-140v1088zM921 1492l70 -97q-72 -52 -121.5 -70t-104.5 -18
q-72 0 -148 37q-65 32 -83 37q-24 7 -52 7q-35 0 -66.5 -12.5t-91.5 -56.5l-66 102q91 97 225 97q64 0 153 -40q85 -39 134 -39q55 0 151 53z" />
    <glyph glyph-name="oacute" unicode="&#xf3;" horiz-adv-x="1341" 
d="M671 1116q251 0 416 -182q150 -166 150 -393q0 -228 -158.5 -398.5t-407.5 -170.5q-250 0 -408.5 170.5t-158.5 398.5q0 226 150 392q165 183 417 183zM671 979q-174 0 -299 -129t-125 -312q0 -118 57 -220t154 -157.5t213 -55.5t213 55.5t154 157.5t57 220
q0 183 -125.5 312t-298.5 129zM739 1598h215l-295 -308h-138z" />
    <glyph glyph-name="ograve" unicode="&#xf2;" horiz-adv-x="1341" 
d="M671 1116q251 0 416 -182q150 -166 150 -393q0 -228 -158.5 -398.5t-407.5 -170.5q-250 0 -408.5 170.5t-158.5 398.5q0 226 150 392q165 183 417 183zM671 979q-174 0 -299 -129t-125 -312q0 -118 57 -220t154 -157.5t213 -55.5t213 55.5t154 157.5t57 220
q0 183 -125.5 312t-298.5 129zM610 1598l218 -308h-138l-295 308h215z" />
    <glyph glyph-name="ocircumflex" unicode="&#xf4;" horiz-adv-x="1341" 
d="M671 1116q251 0 416 -182q150 -166 150 -393q0 -228 -158.5 -398.5t-407.5 -170.5q-250 0 -408.5 170.5t-158.5 398.5q0 226 150 392q165 183 417 183zM671 979q-174 0 -299 -129t-125 -312q0 -118 57 -220t154 -157.5t213 -55.5t213 55.5t154 157.5t57 220
q0 183 -125.5 312t-298.5 129zM605 1542h139l290 -257h-180l-176 152l-184 -152h-186z" />
    <glyph glyph-name="odieresis" unicode="&#xf6;" horiz-adv-x="1341" 
d="M671 1116q251 0 416 -182q150 -166 150 -393q0 -228 -158.5 -398.5t-407.5 -170.5q-250 0 -408.5 170.5t-158.5 398.5q0 226 150 392q165 183 417 183zM671 979q-174 0 -299 -129t-125 -312q0 -118 57 -220t154 -157.5t213 -55.5t213 55.5t154 157.5t57 220
q0 183 -125.5 312t-298.5 129zM467 1518q48 0 82 -34t34 -82t-34 -82t-82 -34t-82 34t-34 82t34 82t82 34zM875 1518q48 0 82 -34t34 -82t-34 -82t-82 -34t-82 34t-34 82t34 82t82 34z" />
    <glyph glyph-name="otilde" unicode="&#xf5;" horiz-adv-x="1341" 
d="M671 1116q251 0 416 -182q150 -166 150 -393q0 -228 -158.5 -398.5t-407.5 -170.5q-250 0 -408.5 170.5t-158.5 398.5q0 226 150 392q165 183 417 183zM671 979q-174 0 -299 -129t-125 -312q0 -118 57 -220t154 -157.5t213 -55.5t213 55.5t154 157.5t57 220
q0 183 -125.5 312t-298.5 129zM967 1492l70 -97q-72 -52 -121.5 -70t-104.5 -18q-72 0 -148 37q-65 32 -83 37q-24 7 -52 7q-35 0 -66.5 -12.5t-91.5 -56.5l-66 102q91 97 225 97q64 0 153 -40q85 -39 134 -39q55 0 151 53z" />
    <glyph glyph-name="uacute" unicode="&#xfa;" horiz-adv-x="1245" 
d="M138 1088h141v-508q0 -186 20 -256q30 -100 114.5 -158t201.5 -58t198.5 56.5t112.5 148.5q21 63 21 267v508h143v-534q0 -225 -52.5 -339t-158 -178.5t-264.5 -64.5t-265.5 64.5t-159 180t-52.5 347.5v524zM690 1598h215l-295 -308h-138z" />
    <glyph glyph-name="ugrave" unicode="&#xf9;" horiz-adv-x="1245" 
d="M138 1088h141v-508q0 -186 20 -256q30 -100 114.5 -158t201.5 -58t198.5 56.5t112.5 148.5q21 63 21 267v508h143v-534q0 -225 -52.5 -339t-158 -178.5t-264.5 -64.5t-265.5 64.5t-159 180t-52.5 347.5v524zM561 1598l218 -308h-138l-295 308h215z" />
    <glyph glyph-name="ucircumflex" unicode="&#xfb;" horiz-adv-x="1245" 
d="M138 1088h141v-508q0 -186 20 -256q30 -100 114.5 -158t201.5 -58t198.5 56.5t112.5 148.5q21 63 21 267v508h143v-534q0 -225 -52.5 -339t-158 -178.5t-264.5 -64.5t-265.5 64.5t-159 180t-52.5 347.5v524zM556 1542h139l290 -257h-180l-176 152l-184 -152h-186z" />
    <glyph glyph-name="udieresis" unicode="&#xfc;" horiz-adv-x="1245" 
d="M138 1088h141v-508q0 -186 20 -256q30 -100 114.5 -158t201.5 -58t198.5 56.5t112.5 148.5q21 63 21 267v508h143v-534q0 -225 -52.5 -339t-158 -178.5t-264.5 -64.5t-265.5 64.5t-159 180t-52.5 347.5v524zM418 1518q48 0 82 -34t34 -82t-34 -82t-82 -34t-82 34t-34 82
t34 82t82 34zM826 1518q48 0 82 -34t34 -82t-34 -82t-82 -34t-82 34t-34 82t34 82t82 34z" />
    <glyph glyph-name="dagger" unicode="&#x2020;" horiz-adv-x="1133" 
d="M489 1508h149l-23 -457l360 21v-149l-360 26l27 -1263h-153l29 1263l-361 -26v149l361 -21z" />
    <glyph glyph-name="degree" unicode="&#xb0;" horiz-adv-x="819" 
d="M755 1164q0 -145 -101 -244.5t-245 -99.5t-244 100t-100 247q0 141 102.5 241t244.5 100t242.5 -100t100.5 -244zM636 1162q0 102 -65 171t-158 69q-94 0 -161.5 -69.5t-67.5 -168.5q0 -97 68 -167.5t160 -70.5t158 69t66 167z" />
    <glyph glyph-name="cent" unicode="&#xa2;" horiz-adv-x="1135" 
d="M961 1340l121 -60l-132 -257q72 -46 116 -94l-85 -105q-46 44 -95 76l-394 -766q75 -32 144 -32q146 0 306 128l91 -106q-78 -69 -184 -110.5t-212 -41.5q-96 0 -208 37l-152 -295l-117 64l151 301q-108 97 -158 209t-50 247q0 240 150.5 410.5t393.5 170.5q90 0 181 -33
zM765 961q-64 21 -121 21q-171 0 -285.5 -120.5t-114.5 -318.5q0 -109 33 -191t100 -143z" />
    <glyph glyph-name="sterling" unicode="&#xa3;" horiz-adv-x="1135" 
d="M99 844h254q-54 192 -60 227q-11 57 -11 108q0 134 104 231.5t257 97.5q100 0 171.5 -42.5t117.5 -123t57 -217.5h-136q-4 121 -59 185t-147 64q-101 0 -163 -56.5t-62 -148.5q0 -81 29 -163l7 -18l45 -144h320v-129h-286q37 -126 37 -264q0 -107 -22 -188
q61 -51 166 -115q60 -36 110 -36q95 0 106 232h141q1 -117 -33.5 -211.5t-84.5 -132t-112 -37.5q-67 0 -145 35q-108 48 -197 125q-83 -160 -237 -160q-96 0 -152.5 50.5t-56.5 137.5q0 96 66 164t156 68q67 0 144 -39q7 67 7 106q0 141 -45 265h-286v129zM385 207
q-68 41 -114 41q-33 0 -55 -22t-22 -55q0 -32 19.5 -53.5t47.5 -21.5q75 0 124 111z" />
    <glyph glyph-name="section" unicode="&#xa7;" horiz-adv-x="1259" 
d="M964 1194h-147q-11 94 -72 147.5t-159 53.5q-106 0 -166.5 -52t-60.5 -128q0 -44 19 -81q26 -50 83 -98.5t198 -132.5q165 -99 223.5 -151t87.5 -113t29 -119q0 -101 -77.5 -186t-208.5 -110q106 -66 162 -155t56 -181q0 -132 -102 -223t-267 -91q-163 0 -271 83
t-129 205h148q23 -64 67 -99q72 -58 176 -58q105 0 167.5 53t62.5 128q0 68 -50 132t-230 179q-172 110 -210 138q-84 65 -123.5 136t-39.5 145q0 63 31 123.5t87.5 106t141.5 70.5q-99 71 -138.5 143t-39.5 160q0 139 100.5 228t271.5 89q166 0 264 -88.5t116 -253.5z
M507 839q-110 -17 -170.5 -75.5t-60.5 -140.5q0 -73 53 -133q69 -79 267 -184q122 15 189.5 76.5t67.5 140.5q0 62 -47 114t-285 193z" />
    <glyph glyph-name="bullet" unicode="&#x2022;" horiz-adv-x="1241" 
d="M620 1053q127 0 217 -90t90 -217q0 -128 -90 -218t-217 -90t-217 90t-90 218q0 127 90 217t217 90z" />
    <glyph glyph-name="paragraph" unicode="&#xb6;" horiz-adv-x="1155" 
d="M483 -231v937q-75 0 -111 8q-78 17 -141 67.5t-100 135t-37 188.5q0 189 116 308q97 100 299 100h513v-75h-84v-1669h-119v1669h-217v-1669h-119z" />
    <glyph glyph-name="germandbls" unicode="&#xdf;" horiz-adv-x="1135" 
d="M162 0v995q0 226 43.5 322t143 157.5t234.5 61.5q177 0 285.5 -103t108.5 -259q0 -99 -50 -176t-139 -123q-49 -25 -137 -37q97 -15 149 -42q108 -57 169 -157t61 -231q0 -192 -117 -314t-300 -122q-123 0 -208 49v133q105 -49 188 -49q128 0 212.5 85.5t84.5 221.5
q0 151 -101.5 246t-293.5 101v157h32q139 0 223 73.5t84 178.5q0 99 -70 166t-178 67q-85 0 -156 -46.5t-103 -124.5q-24 -61 -24 -248v-982h-141z" />
    <glyph glyph-name="registered" unicode="&#xae;" horiz-adv-x="1530" 
d="M1551 760q0 -212 -105 -393.5t-288 -287.5t-392 -106t-392 105.5t-288.5 287.5t-105.5 390q0 210 105.5 394t288 289t392.5 105t391.5 -104.5t287.5 -288.5t106 -391zM1442 759q0 180 -91 338.5t-247 249.5t-336 91q-181 0 -339.5 -91t-249 -249.5t-90.5 -340.5
q0 -181 90.5 -338t249.5 -248t339 -91q179 0 336 91.5t247.5 248t90.5 339.5zM439 1217h377q132 0 190 -26.5t94.5 -86.5t36.5 -140q0 -69 -26 -119q-20 -37 -87 -81q61 -30 82 -69.5t21 -135.5v-102q0 -72 32 -120l15 -24h-160q-15 56 -21 133l-7 111q-4 61 -19.5 86
t-44 36t-113.5 11h-227v-377h-143v904zM582 1087v-268h222q101 0 137 23q53 33 53 112q0 69 -38 101t-143 32h-231z" />
    <glyph glyph-name="copyright" unicode="&#xa9;" horiz-adv-x="1530" 
d="M1551 757q0 -211 -105 -392t-287.5 -286.5t-392.5 -105.5t-393 105.5t-288 287t-105 391.5t105 391.5t287.5 286.5t393.5 105q210 0 392.5 -105t287.5 -286.5t105 -391.5zM1442 757q0 182 -90.5 338.5t-247.5 247.5t-339 91q-181 0 -338 -91t-247.5 -248t-90.5 -338
q0 -182 90.5 -339t248 -247.5t338.5 -90.5t338 90.5t247.5 247.5t90.5 339zM1150 924h-136q-21 89 -79.5 133.5t-155.5 44.5q-127 0 -204 -89.5t-77 -261.5q0 -168 74 -256t193 -88q100 0 165.5 61.5t83.5 184.5h136q-19 -164 -124 -261t-256 -97q-189 0 -302 121.5
t-113 336.5q0 226 117.5 352t298.5 126q167 0 267 -83.5t112 -223.5z" />
    <glyph glyph-name="trademark" unicode="&#x2122;" horiz-adv-x="2048" 
d="M1966 1513v-862h-150v710l-321 -710h-99l-311 710v-710h-149v862h243l267 -597l282 597h238zM770 1513v-137h-305v-725h-150v725h-303v137h758z" />
    <glyph glyph-name="acute" unicode="&#xb4;" horiz-adv-x="768" 
d="M452 1598h215l-295 -308h-138z" />
    <glyph glyph-name="dieresis" unicode="&#xa8;" horiz-adv-x="756" 
d="M174 1518q48 0 82 -34t34 -82t-34 -82t-82 -34t-82 34t-34 82t34 82t82 34zM582 1518q48 0 82 -34t34 -82t-34 -82t-82 -34t-82 34t-34 82t34 82t82 34z" />
    <glyph glyph-name="notequal" unicode="&#x2260;" horiz-adv-x="1124" 
d="M742 1024h326v-137h-379l-117 -303h496v-137h-549l-187 -484h-138l186 484h-324v137h377l116 303h-493v137h545l186 484h142z" />
    <glyph glyph-name="AE" unicode="&#xc6;" horiz-adv-x="2032" 
d="M1 0l950 1471h910v-151h-693v-452h693v-145h-693v-579h693v-144h-842v482h-535l-312 -482h-171zM578 620h441v681z" />
    <glyph glyph-name="Oslash" unicode="&#xd8;" horiz-adv-x="1778" 
d="M1454 1269q100 -102 154.5 -238.5t54.5 -294.5q0 -323 -224.5 -548t-547.5 -225q-245 0 -437 128l-164 -194l-107 87l165 194q-234 227 -234 551q0 212 103 393.5t281 283.5t391 102q257 0 467 -148l144 174l105 -87zM444 291l811 954q-169 119 -369 119q-163 0 -309 -85
t-228 -229t-82 -322q0 -255 177 -437zM1356 1153l-805 -949q152 -98 335 -98q171 0 316.5 83t227 227t81.5 320q0 244 -155 417z" />
    <glyph glyph-name="infinity" unicode="&#x221e;" 
d="M687 812q117 146 186 189t147 43q110 0 199 -78t89 -243q0 -168 -84 -251.5t-204 -83.5q-87 0 -156.5 49t-176.5 183q-136 -171 -289 -171q-102 0 -174 77.5t-72 189.5t72 189.5t174 77.5q153 0 289 -171zM756 717q83 -128 152 -180q50 -38 110 -38q77 0 128 56.5
t51 157.5q0 105 -52 161.5t-131 56.5q-53 0 -103.5 -36.5t-154.5 -177.5zM618 716q-77 97 -125.5 127t-94.5 30q-59 0 -97 -41.5t-38 -112.5q0 -70 39.5 -113t97.5 -43q101 0 218 153z" />
    <glyph glyph-name="plusminus" unicode="&#xb1;" horiz-adv-x="1124" 
d="M493 913v434h137v-434h438v-137h-438v-434h-137v434h-437v137h437zM1068 161v-137h-1012v137h1012z" />
    <glyph glyph-name="lessequal" unicode="&#x2264;" horiz-adv-x="1124" 
d="M1079 481v-146l-1033 469v130l1033 471v-147l-839 -390zM1079 231v-137h-1033v137h1033z" />
    <glyph glyph-name="greaterequal" unicode="&#x2265;" horiz-adv-x="1124" 
d="M46 481l839 387l-839 390v147l1033 -471v-130l-1033 -469v146zM1079 231v-137h-1033v137h1033z" />
    <glyph glyph-name="yen" unicode="&#xa5;" horiz-adv-x="1135" 
d="M906 1471h166l-417 -735h356v-117h-374v-155h374v-117h-374v-347h-144v347h-370v117h370v155h-370v117h353l-414 735h167l337 -602z" />
    <glyph glyph-name="mu" unicode="&#xb5;" horiz-adv-x="1180" 
d="M147 -398v1486h141v-600q0 -136 33.5 -203t108.5 -112.5t162 -45.5t156.5 43.5t107 120t37.5 210.5v587h140v-1088h-140v118q-59 -74 -133.5 -108.5t-168.5 -34.5t-169.5 34.5t-133.5 105.5v-513h-141z" />
    <glyph glyph-name="partialdiff" unicode="&#x2202;" horiz-adv-x="1012" 
d="M426 1138l-135 60q67 149 163.5 221t196.5 72q88 0 162 -56t117 -181.5t43 -327.5q0 -295 -87.5 -514.5t-231.5 -328t-290 -108.5q-138 0 -223 92t-85 255q0 236 164 398q199 196 638 204q-4 191 -29.5 276.5t-72 124t-103.5 38.5q-143 0 -227 -225zM854 796
q-248 -15 -359 -69t-185 -175t-74 -249q0 -83 51 -137t119 -54q87 0 186 73t168.5 224t93.5 387z" />
    <glyph glyph-name="summation" unicode="&#x2211;" 
d="M139 1536h1237v-164h-988l607 -796l-646 -841h1037v-161h-1264v187l620 808l-603 791v176z" />
    <glyph glyph-name="product" unicode="&#x220f;" horiz-adv-x="1685" 
d="M162 1536h1362v-1962h-191v1788h-978v-1788h-193v1962z" />
    <glyph glyph-name="pigrek.1" unicode="&#xf006;" horiz-adv-x="1124" 
d="M0 1063h1124v-158h-162v-905h-189v905h-426v-905h-188v905h-159v158z" />
    <glyph glyph-name="integral" unicode="&#x222b;" horiz-adv-x="561" 
d="M201 948q0 209 16 499q10 184 54 292q25 60 71.5 92t92.5 32q49 0 87 -33t38 -74q0 -46 -26.5 -75t-65.5 -29q-35 0 -76 36q-23 20 -40 20q-18 0 -29 -14.5t-11 -49.5q0 -42 9 -145q37 -410 37 -665q0 -67 -15 -567q-9 -305 -84 -410q-55 -77 -141 -77q-52 0 -85 34
t-33 87q0 44 25.5 71.5t64.5 27.5q40 0 70 -33q28 -31 48 -31q17 0 28 14.5t11 46.5q0 42 -9 120q-37 316 -37 831z" />
    <glyph glyph-name="ordfeminine" unicode="&#xaa;" horiz-adv-x="756" 
d="M664 1491v-681h-114v94q-42 -55 -93.5 -82.5t-113.5 -27.5q-114 0 -200 101.5t-86 256.5q0 153 87 254.5t201 101.5q61 0 112.5 -29t92.5 -87v99h114zM365 1399q-77 0 -134.5 -70t-57.5 -179q0 -110 58 -181t133 -71q77 0 134.5 68t57.5 182q0 112 -57 181.5t-134 69.5z
" />
    <glyph glyph-name="ordmasculine" unicode="&#xba;" horiz-adv-x="756" 
d="M377 1508q133 0 228 -103t95 -256q0 -152 -94.5 -253.5t-228.5 -101.5q-133 0 -227.5 101.5t-94.5 253.5q0 154 95 256.5t227 102.5zM377 1398q-81 0 -143 -72t-62 -179t60.5 -176.5t144.5 -69.5q85 0 145.5 69.5t60.5 176.5t-62 179t-144 72z" />
    <glyph glyph-name="Omega" unicode="&#x2126;" horiz-adv-x="1573" 
d="M496 160q-126 79 -196.5 167.5t-110 209.5t-39.5 265q0 210 84.5 370.5t231.5 245.5t342 85q323 0 502 -236q145 -190 145 -466q0 -138 -39.5 -256.5t-111.5 -211.5t-193 -173l364 6v-166h-575v177q90 45 144 95q92 88 147.5 219.5t55.5 285.5q0 171 -60.5 305.5
t-155.5 196t-227 61.5q-195 0 -318.5 -147t-123.5 -413q0 -220 92 -374.5t250 -225.5v-180h-577v168z" />
    <glyph glyph-name="ae" unicode="&#xe6;" horiz-adv-x="2370" 
d="M1245 1088v-197q106 127 205 176t232 49q246 0 406.5 -164.5t159.5 -421.5h-979q4 -116 62 -219t153.5 -157t211.5 -54q125 0 224 61.5t173 195.5l120 -60q-74 -155 -213 -240t-314 -85q-154 0 -275 69q-87 49 -166 153v-194h-128v201q-89 -111 -173 -159
q-120 -70 -263 -70q-231 0 -396 167.5t-165 408.5q0 156 74 285.5t205 206t278 76.5q141 0 264 -69q87 -50 176 -157v198h128zM2093 651q-28 114 -81 181t-141 108.5t-181 41.5q-95 0 -184.5 -42.5t-146.5 -113t-82 -175.5h816zM687 981q-114 0 -213.5 -57t-155 -157.5
t-55.5 -222.5q0 -188 124 -313.5t305 -125.5t304.5 124.5t123.5 312.5q0 131 -53.5 228t-156 154t-223.5 57z" />
    <glyph glyph-name="oslash" unicode="&#xf8;" horiz-adv-x="1337" 
d="M1102 913q133 -161 133 -372q0 -228 -158.5 -398.5t-407.5 -170.5q-164 0 -299 82l-116 -137l-89 74l114 134q-177 171 -177 416q0 228 158 401.5t408 173.5q201 0 351 -120l116 137l92 -74zM367 229l560 658q-118 92 -258 92q-111 0 -209.5 -58.5t-156.5 -162
t-58 -220.5q0 -86 32.5 -168.5t89.5 -140.5zM1007 802l-548 -644q103 -53 209 -53q116 0 213.5 55.5t154.5 157.5t57 219q0 144 -86 265z" />
    <glyph glyph-name="questiondown" unicode="&#xbf;" horiz-adv-x="1210" 
d="M604 1110q51 0 87 -36t36 -88t-36 -88t-87 -36t-87 36t-36 88q0 51 36 87.5t87 36.5zM896 11h145q-2 -202 -120.5 -319.5t-317.5 -117.5q-196 0 -308 99t-112 246q0 70 31 129.5t92.5 107t216.5 108.5q195 78 237 117q41 39 41 93q0 58 -56.5 104t-146.5 46
q-99 0 -152 -50.5t-65 -161.5h-146q7 167 103.5 260t259.5 93q162 0 258 -84t96 -208q0 -60 -26.5 -113.5t-75 -89.5t-182.5 -91q-216 -88 -276 -132q-61 -44 -61 -125q0 -87 73.5 -147.5t196.5 -60.5q151 0 234 99q58 69 61 198z" />
    <glyph glyph-name="exclamdown" unicode="&#xa1;" horiz-adv-x="604" 
d="M302 1110q51 0 87 -36t36 -88t-36 -88t-87 -36t-87 36t-36 88q0 51 36 87.5t87 36.5zM231 -426v1140h145v-1140h-145z" />
    <glyph glyph-name="logicalnot" unicode="&#xac;" horiz-adv-x="1241" 
d="M1127 1024v-577h-137l-1 440h-874v137h1012z" />
    <glyph glyph-name="radical" unicode="&#x221a;" horiz-adv-x="1124" 
d="M1047 1869h74l-312 -1947l-496 1021l-198 -91l-34 64l301 151l405 -823z" />
    <glyph glyph-name="florin" unicode="&#x192;" horiz-adv-x="1135" 
d="M621 882h231l-17 -122h-233l-107 -710q-29 -196 -74 -291t-110.5 -140t-136.5 -45q-68 0 -142 49l18 124q55 -45 111 -45q71 0 122.5 73t83.5 296l101 689h-141l17 122h141l49 319q28 184 65 239q66 96 166 96q83 0 177 -65l-18 -133q-77 73 -139 73q-49 0 -75.5 -45.5
t-46.5 -189.5z" />
    <glyph glyph-name="approxequal" unicode="&#x2248;" horiz-adv-x="1124" 
d="M1070 1023v-162q-112 -63 -160.5 -79.5t-91.5 -16.5q-95 0 -265 77q-132 60 -168.5 71.5t-68.5 11.5q-44 0 -97 -19t-165 -86v160q110 63 159 79.5t95 16.5q97 0 268 -81q118 -56 161.5 -69.5t78.5 -13.5q42 0 85 16.5t169 94.5zM1070 651v-162q-112 -63 -160.5 -79.5
t-91.5 -16.5q-95 0 -265 77q-132 60 -168.5 71.5t-68.5 11.5q-44 0 -97 -19.5t-165 -85.5v160q110 62 159 79t95 17q97 0 268 -81q118 -56 161.5 -69.5t78.5 -13.5q42 0 85 16.5t169 94.5z" />
    <glyph glyph-name="Delta" unicode="&#x2206;" horiz-adv-x="1253" 
d="M1226 0h-1200l628 1387zM990 82l-399 967l-440 -967h839z" />
    <glyph glyph-name="guillemotleft" unicode="&#xab;" horiz-adv-x="870" 
d="M391 1088l-223 -546l223 -542h-148l-222 542l222 546h148zM849 1088l-224 -546l224 -542h-148l-222 542l222 546h148z" />
    <glyph glyph-name="guillemotright" unicode="&#xbb;" horiz-adv-x="870" 
d="M479 0l223 545l-223 543h147l223 -543l-223 -545h-147zM21 0l223 545l-223 543h148l222 -543l-222 -545h-148z" />
    <glyph glyph-name="ellipsis" unicode="&#x2026;" horiz-adv-x="2048" 
d="M1024 220q51 0 87 -36t36 -88q0 -51 -36 -87.5t-87 -36.5t-87 36.5t-36 87.5q0 52 36 88t87 36zM341 220q51 0 87 -36t36 -88q0 -51 -36 -87.5t-87 -36.5t-87 36.5t-36 87.5q0 52 36 88t87 36zM1707 220q50 0 86.5 -36t36.5 -88q0 -51 -36.5 -87.5t-86.5 -36.5
q-51 0 -87 36.5t-36 87.5q0 52 36 88t87 36z" />
    <glyph glyph-name="uni00A0" unicode="&#xa0;" horiz-adv-x="573" 
 />
    <glyph glyph-name="Agrave" unicode="&#xc0;" horiz-adv-x="1515" 
d="M780 1471l686 -1471h-158l-231 484h-634l-230 -484h-164l695 1471h36zM762 1159l-253 -533h503zM697 1895l218 -308h-138l-295 308h215z" />
    <glyph glyph-name="Atilde" unicode="&#xc3;" horiz-adv-x="1515" 
d="M780 1471l686 -1471h-158l-231 484h-634l-230 -484h-164l695 1471h36zM762 1159l-253 -533h503zM1054 1789l70 -97q-72 -52 -121.5 -70t-104.5 -18q-72 0 -148 37q-65 32 -83 37q-24 7 -52 7q-35 0 -66.5 -12.5t-91.5 -56.5l-66 102q91 97 225 97q64 0 153 -40
q85 -39 134 -39q55 0 151 53z" />
    <glyph glyph-name="Otilde" unicode="&#xd5;" horiz-adv-x="1780" 
d="M880 1508q334 0 559 -223t225 -549q0 -323 -224.5 -548t-547.5 -225q-327 0 -552 224t-225 542q0 212 102.5 393t279.5 283.5t383 102.5zM887 1364q-163 0 -309 -85t-228 -229t-82 -321q0 -262 181.5 -442.5t437.5 -180.5q171 0 316.5 83t227 227t81.5 320
q0 175 -81.5 316.5t-229.5 226.5t-314 85zM1186 1789l70 -97q-72 -52 -121.5 -70t-104.5 -18q-72 0 -148 37q-65 32 -83 37q-24 7 -52 7q-35 0 -66.5 -12.5t-91.5 -56.5l-66 102q91 97 225 97q64 0 153 -40q85 -39 134 -39q55 0 151 53z" />
    <glyph glyph-name="OE" unicode="&#x152;" horiz-adv-x="2445" 
d="M1522 1471h838v-145h-689v-457h689v-145h-689v-579h689v-145h-838v285q-99 -126 -188 -190t-199 -98t-241 -34q-369 0 -598 273q-182 217 -182 492q0 208 102.5 390t287.5 286t392 104q198 0 378 -103q143 -82 248 -219v285zM891 1366q-247 0 -432.5 -187t-185.5 -439
q0 -265 183 -449.5t447 -184.5q255 0 436 184.5t181 446.5q0 171 -83 314t-233 229t-313 86z" />
    <glyph glyph-name="oe" unicode="&#x153;" horiz-adv-x="2329" 
d="M2214 531h-976q14 -223 139.5 -326.5t285.5 -103.5q130 0 234.5 67t163.5 193l119 -61q-94 -173 -221.5 -250.5t-304.5 -77.5q-98 0 -188.5 30.5t-154.5 80.5t-145 164q-91 -137 -213.5 -206t-275.5 -69q-235 0 -400 168t-165 410q0 270 206 437q159 129 360 129
q163 0 299 -88q99 -63 189 -200q84 133 178 196q136 92 313 92q233 0 395.5 -161.5t162.5 -387.5zM672 981q-111 0 -209 -57.5t-155 -161.5t-57 -220q0 -118 56.5 -220t159.5 -161.5t214 -59.5q110 0 210 58.5t154 157t54 220.5q0 188 -124 316t-303 128zM2061 651
q-41 158 -149 243.5t-254 85.5q-157 0 -275 -100q-91 -77 -132 -229h810z" />
    <glyph glyph-name="endash" unicode="&#x2013;" horiz-adv-x="1024" 
d="M-12 637h1048v-129h-1048v129z" />
    <glyph glyph-name="emdash" unicode="&#x2014;" horiz-adv-x="2048" 
d="M-12 637h2072v-129h-2072v129z" />
    <glyph glyph-name="quotedblleft" unicode="&#x201c;" horiz-adv-x="1028" 
d="M289 1508l78 -44q-38 -76 -51 -119t-20 -111h89v-275h-181v172q0 129 17.5 202.5t67.5 174.5zM734 1508l78 -44q-38 -76 -51 -119t-20 -111h89v-275h-181v172q0 129 17 202.5t68 174.5z" />
    <glyph glyph-name="quotedblright" unicode="&#x201d;" horiz-adv-x="991" 
d="M721 959l-77 44q38 76 51 119t19 111h-88v275h181v-172q0 -129 -17.5 -202.5t-68.5 -174.5zM276 959l-77 44q38 76 51 119t19 111h-88v275h181v-172q0 -129 -17.5 -202.5t-68.5 -174.5z" />
    <glyph glyph-name="quoteleft" unicode="&#x2018;" horiz-adv-x="719" 
d="M371 1508l78 -44q-38 -76 -51 -119t-20 -111h89v-275h-181v172q0 129 17.5 202.5t67.5 174.5z" />
    <glyph glyph-name="quoteright" unicode="&#x2019;" horiz-adv-x="719" 
d="M347 959l-77 44q38 76 51 119t19 111h-88v275h181v-172q0 -129 -17.5 -202.5t-68.5 -174.5z" />
    <glyph glyph-name="divide" unicode="&#xf7;" horiz-adv-x="1124" 
d="M461 1207h201v-202h-201v202zM56 804h1012v-137h-1012v137zM461 466h201v-205h-201v205z" />
    <glyph glyph-name="lozenge" unicode="&#x25ca;" horiz-adv-x="1012" 
d="M549 1422l418 -713l-418 -709h-111l-391 709l391 713h111zM495 1325l-340 -616l340 -615l359 615z" />
    <glyph glyph-name="ydieresis" unicode="&#xff;" horiz-adv-x="1098" 
d="M39 1088h148l374 -838l363 838h149l-649 -1486h-148l210 480zM355 1518q48 0 82 -34t34 -82t-34 -82t-82 -34t-82 34t-34 82t34 82t82 34zM763 1518q48 0 82 -34t34 -82t-34 -82t-82 -34t-82 34t-34 82t34 82t82 34z" />
    <glyph glyph-name="Ydieresis" unicode="&#x178;" horiz-adv-x="1212" 
d="M63 1471h170l376 -606l370 606h170l-466 -768v-703h-145v703zM402 1816q48 0 82 -34t34 -82t-34 -82t-82 -34t-82 34t-34 82t34 82t82 34zM810 1816q48 0 82 -34t34 -82t-34 -82t-82 -34t-82 34t-34 82t34 82t82 34z" />
    <glyph glyph-name="fraction" unicode="&#x2044;" horiz-adv-x="340" 
d="M-347 -37l923 1545h112l-925 -1545h-110z" />
    <glyph glyph-name="fraction" unicode="&#x2215;" horiz-adv-x="340" 
d="M-347 -37l923 1545h112l-925 -1545h-110z" />
    <glyph glyph-name="Euro" unicode="&#x20ac;" horiz-adv-x="1135" 
d="M197 965q77 251 284.5 396.5t476.5 145.5q65 0 160 -14l-37 -141q-58 12 -120 12q-199 0 -362.5 -106t-238.5 -293h639l-36 -138h-637q-7 -46 -7 -96q0 -30 5 -78h591l-36 -137h-525q69 -195 235.5 -305.5t379.5 -110.5q65 0 139 17v-140q-64 -12 -150 -12
q-281 0 -485.5 146t-277.5 405h-148l35 137h88q-4 56 -4 90q0 32 4 84h-123l37 138h113z" />
    <glyph glyph-name="guilsinglleft" unicode="&#x2039;" horiz-adv-x="514" 
d="M445 1088l-223 -546l223 -542h-148l-222 542l222 546h148z" />
    <glyph glyph-name="guilsinglright" unicode="&#x203a;" horiz-adv-x="514" 
d="M70 0l223 545l-223 543h148l222 -543l-222 -545h-148z" />
    <glyph glyph-name="uniFB01" unicode="&#xf001;" horiz-adv-x="997" 
d="M858 1264h-142q-29 138 -167 138q-62 0 -103.5 -27.5t-59.5 -73t-18 -165.5v-48h226v-123h-226v-965h-142v965h-142v123h142v48q0 157 35.5 232.5t110 121.5t179.5 46q132 0 215.5 -76t91.5 -196zM716 1088h142v-1088h-142v1088z" />
    <glyph glyph-name="uniFB01" unicode="&#xfb01;" horiz-adv-x="997" 
d="M858 1264h-142q-29 138 -167 138q-62 0 -103.5 -27.5t-59.5 -73t-18 -165.5v-48h226v-123h-226v-965h-142v965h-142v123h142v48q0 157 35.5 232.5t110 121.5t179.5 46q132 0 215.5 -76t91.5 -196zM716 1088h142v-1088h-142v1088z" />
    <glyph glyph-name="uniFB02" unicode="&#xf002;" horiz-adv-x="993" 
d="M603 1088v-124h-224v-964h-144v964h-143v124h143v36q0 169 33.5 243t109 121.5t174.5 47.5q100 0 175.5 -49t106.5 -122t31 -258v-1107h-143v1115q0 138 -15.5 185.5t-58 76.5t-98.5 29t-98.5 -30.5t-60.5 -85.5q-12 -40 -12 -202h224z" />
    <glyph glyph-name="uniFB02" unicode="&#xfb02;" horiz-adv-x="993" 
d="M603 1088v-124h-224v-964h-144v964h-143v124h143v36q0 169 33.5 243t109 121.5t174.5 47.5q100 0 175.5 -49t106.5 -122t31 -258v-1107h-143v1115q0 138 -15.5 185.5t-58 76.5t-98.5 29t-98.5 -30.5t-60.5 -85.5q-12 -40 -12 -202h224z" />
    <glyph glyph-name="daggerdbl" unicode="&#x2021;" horiz-adv-x="1133" 
d="M492 1508h147l-23 -354l358 23v-148l-358 27l23 -459l-23 -452l358 20v-148l-358 28l23 -359h-147l24 359l-357 -28v148l357 -20l-24 452l24 459l-357 -27v148l357 -23z" />
    <glyph glyph-name="uni2219" unicode="&#x2219;" horiz-adv-x="567" 
d="M284 859q51 0 87 -36t36 -88q0 -51 -36 -87.5t-87 -36.5t-87 36.5t-36 87.5q0 52 36 88t87 36z" />
    <glyph glyph-name="quotesinglbase" unicode="&#x201a;" horiz-adv-x="725" 
d="M350 -274l-77 43q38 76 51 119.5t19 111.5h-88v275h181v-172q0 -129 -17.5 -202.5t-68.5 -174.5z" />
    <glyph glyph-name="quotedblbase" unicode="&#x201e;" horiz-adv-x="1028" 
d="M738 -274l-77 44q38 76 51 119t19 111h-88v275h181v-172q0 -129 -17.5 -202.5t-68.5 -174.5zM293 -274l-77 44q38 76 51 119t19 111h-88v275h181v-172q0 -129 -17.5 -202.5t-68.5 -174.5z" />
    <glyph glyph-name="perthousand" unicode="&#x2030;" horiz-adv-x="2404" 
d="M1384 1536l-1072 -1638h-132l975 1492q-173 -42 -422 -42l-54 1q62 -86 62 -182q0 -137 -95.5 -245t-253.5 -108q-145 0 -244 100.5t-99 244.5q0 96 45 174.5t128 126.5t170 48q37 0 122 -18q130 -28 282 -28q112 0 211.5 14.5t258.5 59.5h118zM395 1381
q-91 0 -155 -64.5t-64 -155.5t64 -155t155 -64t155.5 64t64.5 155t-64.5 155.5t-155.5 64.5zM1198 649q143 0 244.5 -101.5t101.5 -244.5t-101.5 -244.5t-244.5 -101.5t-244.5 101.5t-101.5 244.5t101.5 244.5t244.5 101.5zM1198 522q-91 0 -155 -64t-64 -155t64 -155
t155 -64t155.5 64t64.5 155t-64.5 155t-155.5 64zM1996 649q143 0 244 -101.5t101 -244.5t-101 -244.5t-244 -101.5q-144 0 -245 101.5t-101 244.5t101 244.5t245 101.5zM1996 522q-91 0 -155.5 -64t-64.5 -155t64.5 -155t155.5 -64t155 64t64 155t-64 155t-155 64z" />
    <glyph glyph-name="Acircumflex" unicode="&#xc2;" horiz-adv-x="1515" 
d="M780 1471l686 -1471h-158l-231 484h-634l-230 -484h-164l695 1471h36zM762 1159l-253 -533h503zM691 1840h139l290 -257h-180l-176 152l-184 -152h-186z" />
    <glyph glyph-name="Ecircumflex" unicode="&#xca;" horiz-adv-x="1098" 
d="M180 1471h843v-145h-696v-460h690v-144h-690v-577h690v-145h-837v1471zM543 1840h139l290 -257h-180l-176 152l-184 -152h-186z" />
    <glyph glyph-name="Aacute" unicode="&#xc1;" horiz-adv-x="1515" 
d="M780 1471l686 -1471h-158l-231 484h-634l-230 -484h-164l695 1471h36zM762 1159l-253 -533h503zM825 1895h215l-295 -308h-138z" />
    <glyph glyph-name="Edieresis" unicode="&#xcb;" horiz-adv-x="1098" 
d="M180 1471h843v-145h-696v-460h690v-144h-690v-577h690v-145h-837v1471zM406 1816q48 0 82 -34t34 -82t-34 -82t-82 -34t-82 34t-34 82t34 82t82 34zM814 1816q48 0 82 -34t34 -82t-34 -82t-82 -34t-82 34t-34 82t34 82t82 34z" />
    <glyph glyph-name="Egrave" unicode="&#xc8;" horiz-adv-x="1098" 
d="M180 1471h843v-145h-696v-460h690v-144h-690v-577h690v-145h-837v1471zM549 1895l218 -308h-138l-295 308h215z" />
    <glyph glyph-name="Iacute" unicode="&#xcd;" horiz-adv-x="463" 
d="M158 1471h147v-1471h-147v1471zM299 1895h215l-295 -308h-138z" />
    <glyph glyph-name="Icircumflex" unicode="&#xce;" horiz-adv-x="463" 
d="M158 1471h147v-1471h-147v1471zM165 1840h139l290 -257h-180l-176 152l-184 -152h-186z" />
    <glyph glyph-name="Idieresis" unicode="&#xcf;" horiz-adv-x="463" 
d="M158 1471h147v-1471h-147v1471zM28 1816q48 0 82 -34t34 -82t-34 -82t-82 -34t-82 34t-34 82t34 82t82 34zM436 1816q48 0 82 -34t34 -82t-34 -82t-82 -34t-82 34t-34 82t34 82t82 34z" />
    <glyph glyph-name="Igrave" unicode="&#xcc;" horiz-adv-x="463" 
d="M158 1471h147v-1471h-147v1471zM171 1895l218 -308h-138l-295 308h215z" />
    <glyph glyph-name="Oacute" unicode="&#xd3;" horiz-adv-x="1780" 
d="M880 1508q334 0 559 -223t225 -549q0 -323 -224.5 -548t-547.5 -225q-327 0 -552 224t-225 542q0 212 102.5 393t279.5 283.5t383 102.5zM887 1364q-163 0 -309 -85t-228 -229t-82 -321q0 -262 181.5 -442.5t437.5 -180.5q171 0 316.5 83t227 227t81.5 320
q0 175 -81.5 316.5t-229.5 226.5t-314 85zM958 1895h215l-295 -308h-138z" />
    <glyph glyph-name="Ocircumflex" unicode="&#xd4;" horiz-adv-x="1780" 
d="M880 1508q334 0 559 -223t225 -549q0 -323 -224.5 -548t-547.5 -225q-327 0 -552 224t-225 542q0 212 102.5 393t279.5 283.5t383 102.5zM887 1364q-163 0 -309 -85t-228 -229t-82 -321q0 -262 181.5 -442.5t437.5 -180.5q171 0 316.5 83t227 227t81.5 320
q0 175 -81.5 316.5t-229.5 226.5t-314 85zM824 1840h139l290 -257h-180l-176 152l-184 -152h-186z" />
    <glyph glyph-name="apple" unicode="&#xf000;" horiz-adv-x="1617" 
 />
    <glyph glyph-name="Ograve" unicode="&#xd2;" horiz-adv-x="1780" 
d="M880 1508q334 0 559 -223t225 -549q0 -323 -224.5 -548t-547.5 -225q-327 0 -552 224t-225 542q0 212 102.5 393t279.5 283.5t383 102.5zM887 1364q-163 0 -309 -85t-228 -229t-82 -321q0 -262 181.5 -442.5t437.5 -180.5q171 0 316.5 83t227 227t81.5 320
q0 175 -81.5 316.5t-229.5 226.5t-314 85zM829 1895l218 -308h-138l-295 308h215z" />
    <glyph glyph-name="Uacute" unicode="&#xda;" horiz-adv-x="1341" 
d="M184 1471h147v-888q0 -158 6 -197q11 -87 51 -145.5t123 -98t167 -39.5q73 0 140 31t112 86t66 133q15 56 15 230v888h147v-888q0 -197 -38.5 -318.5t-154 -211.5t-279.5 -90q-178 0 -305 85t-170 225q-27 86 -27 310v888zM739 1895h215l-295 -308h-138z" />
    <glyph glyph-name="Ucircumflex" unicode="&#xdb;" horiz-adv-x="1341" 
d="M184 1471h147v-888q0 -158 6 -197q11 -87 51 -145.5t123 -98t167 -39.5q73 0 140 31t112 86t66 133q15 56 15 230v888h147v-888q0 -197 -38.5 -318.5t-154 -211.5t-279.5 -90q-178 0 -305 85t-170 225q-27 86 -27 310v888zM605 1840h139l290 -257h-180l-176 152
l-184 -152h-186z" />
    <glyph glyph-name="Ugrave" unicode="&#xd9;" horiz-adv-x="1341" 
d="M184 1471h147v-888q0 -158 6 -197q11 -87 51 -145.5t123 -98t167 -39.5q73 0 140 31t112 86t66 133q15 56 15 230v888h147v-888q0 -197 -38.5 -318.5t-154 -211.5t-279.5 -90q-178 0 -305 85t-170 225q-27 86 -27 310v888zM610 1895l218 -308h-138l-295 308h215z" />
    <glyph glyph-name="dotlessi" unicode="&#x131;" horiz-adv-x="410" 
d="M135 1088h141v-1088h-141v1088z" />
    <glyph glyph-name="circumflex" unicode="&#x2c6;" horiz-adv-x="1028" 
d="M448 1542h139l290 -257h-180l-176 152l-184 -152h-186z" />
    <glyph glyph-name="tilde" unicode="&#x2dc;" horiz-adv-x="899" 
d="M746 1492l70 -97q-72 -52 -121.5 -70t-104.5 -18q-72 0 -148 37q-65 32 -83 37q-24 7 -52 7q-35 0 -66.5 -12.5t-91.5 -56.5l-66 102q91 97 225 97q64 0 153 -40q85 -39 134 -39q55 0 151 53z" />
    <glyph glyph-name="uni02C9" unicode="&#x2c9;" horiz-adv-x="993" 
d="M152 1479h690v-119h-690v119z" />
    <glyph glyph-name="breve" unicode="&#x2d8;" horiz-adv-x="928" 
d="M110 1525h132q34 -52 91 -78t136 -26q80 0 129 23t93 81h128q-22 -90 -112.5 -150.5t-238.5 -60.5q-147 0 -240 59.5t-118 151.5z" />
    <glyph glyph-name="dotaccent" unicode="&#x2d9;" horiz-adv-x="455" 
d="M228 1518q48 0 82 -34t34 -82t-34 -82t-82 -34t-82 34t-34 82t34 82t82 34z" />
    <glyph glyph-name="ring" unicode="&#x2da;" horiz-adv-x="680" 
d="M340 1691q88 0 150.5 -62.5t62.5 -151.5q0 -88 -62 -150.5t-151 -62.5q-88 0 -150.5 62.5t-62.5 150.5q0 89 62.5 151.5t150.5 62.5zM339 1590q-46 0 -78 -32.5t-32 -77.5t32 -77.5t78 -32.5q45 0 77 32.5t32 77.5t-32 77.5t-77 32.5z" />
    <glyph glyph-name="cedilla" unicode="&#xb8;" horiz-adv-x="664" 
d="M311 0h88l-17 -118q23 3 38 3q49 0 82 -30.5t33 -76.5q0 -66 -60 -112t-169 -46q-89 0 -167 30l22 69q64 -20 120 -20q75 0 105 18.5t30 46.5q0 17 -16.5 30t-45.5 13q-24 0 -70 -9z" />
    <glyph glyph-name="hungarumlaut" unicode="&#x2dd;" horiz-adv-x="1130" 
d="M475 1598h215l-295 -308h-138zM791 1598h215l-295 -308h-138z" />
    <glyph glyph-name="ogonek" unicode="&#x2db;" horiz-adv-x="618" 
d="M309 0h109q-121 -103 -121 -193q0 -46 37.5 -78t108.5 -32q29 0 69 5l-9 -85q-42 -10 -85 -10q-111 0 -169.5 53t-58.5 127q0 130 119 213z" />
    <glyph glyph-name="caron" unicode="&#x2c7;" horiz-adv-x="1028" 
d="M580 1285h-139l-290 257h180l177 -152l183 152h186z" />
    <glyph glyph-name="Lslash" unicode="&#x141;" horiz-adv-x="1059" 
d="M438 857l266 221v-174l-266 -222v-540h566v-142h-713v559l-202 -168v175l202 168v737h147v-614z" />
    <glyph glyph-name="lslash" unicode="&#x142;" horiz-adv-x="614" 
d="M377 971l200 129v-140l-200 -129v-831h-140v741l-184 -119v140l184 119v627h140v-537z" />
    <glyph glyph-name="Scaron" unicode="&#x160;" horiz-adv-x="1020" 
d="M27 274l125 75q132 -243 305 -243q74 0 139 34.5t99 92.5t34 123q0 74 -50 145q-69 98 -252 236q-184 139 -229 201q-78 104 -78 225q0 96 46 175t129.5 124.5t181.5 45.5q104 0 194.5 -51.5t191.5 -189.5l-120 -91q-83 110 -141.5 145t-127.5 35q-89 0 -145.5 -54
t-56.5 -133q0 -48 20 -93t73 -98q29 -28 190 -147q191 -141 262 -251t71 -221q0 -160 -121.5 -278t-295.5 -118q-134 0 -243 71.5t-201 239.5zM576 1583h-139l-290 257h180l177 -152l183 152h186z" />
    <glyph glyph-name="scaron" unicode="&#x161;" horiz-adv-x="795" 
d="M703 969l-90 -93q-112 109 -219 109q-68 0 -116.5 -45t-48.5 -105q0 -53 40 -101q40 -49 168 -115q156 -81 212 -156q55 -76 55 -171q0 -134 -94 -227t-235 -93q-94 0 -179.5 41t-141.5 113l88 100q107 -121 227 -121q84 0 143 54t59 127q0 60 -39 107q-39 46 -176 116
q-147 76 -200 150t-53 169q0 124 84.5 206t213.5 82q150 0 302 -147zM463 1285h-139l-290 257h180l177 -152l183 152h186z" />
    <glyph glyph-name="Zcaron" unicode="&#x17d;" horiz-adv-x="983" 
d="M122 1329v142h776l-615 -1328h584v-143h-811l619 1329h-553zM558 1583h-139l-290 257h180l177 -152l183 152h186z" />
    <glyph glyph-name="zcaron" unicode="&#x17e;" horiz-adv-x="870" 
d="M67 1088h799l-616 -964h596v-124h-837l616 965h-558v123zM501 1285h-139l-290 257h180l177 -152l183 152h186z" />
    <glyph glyph-name="brokenbar" unicode="&#xa6;" horiz-adv-x="1376" 
d="M616 686v822h143v-767zM616 -398v957l143 54v-1011h-143z" />
    <glyph glyph-name="Eth" unicode="&#xd0;" horiz-adv-x="1618" 
d="M213 667h-179v137h179v667h366q329 0 479 -53q213 -75 333.5 -260t120.5 -441q0 -221 -95.5 -389t-248 -248t-426.5 -80h-529v667zM354 667v-528h230q305 0 423 38q166 54 261.5 194.5t95.5 343.5q0 213 -103.5 364t-287.5 207q-138 42 -455 42h-164v-524h387v-137h-387z
" />
    <glyph glyph-name="eth" unicode="&#xf0;" horiz-adv-x="1341" 
d="M430 1508h197q52 -37 102 -78l164 68l52 -107l-117 -47q217 -209 314 -406.5t97 -370.5q0 -166 -74.5 -304t-206.5 -214.5t-292 -76.5q-232 0 -396.5 167t-164.5 408q0 238 162.5 403.5t385.5 165.5q116 0 251 -65q-94 127 -213 235l-218 -90l-52 106l175 73
q-96 80 -166 133zM680 982q-156 0 -281 -98q-153 -121 -153 -334q0 -189 124.5 -316.5t300.5 -127.5q114 0 213.5 57.5t155 158.5t55.5 226t-53.5 225t-150 154.5t-211.5 54.5z" />
    <glyph glyph-name="Yacute" unicode="&#xdd;" horiz-adv-x="1212" 
d="M63 1471h170l376 -606l370 606h170l-466 -768v-703h-145v703zM674 1895h215l-295 -308h-138z" />
    <glyph glyph-name="yacute" unicode="&#xfd;" horiz-adv-x="1098" 
d="M39 1088h148l374 -838l363 838h149l-649 -1486h-148l210 480zM617 1598h215l-295 -308h-138z" />
    <glyph glyph-name="Thorn" unicode="&#xde;" horiz-adv-x="1212" 
d="M178 1471h147v-344h146q251 0 339 -22q126 -31 206.5 -127.5t80.5 -242.5t-78 -241.5t-215 -129.5q-100 -24 -374 -24h-105v-340h-147v1471zM325 984v-500l249 -3q151 0 221 28t110 89t40 137q0 75 -40 136t-105.5 87t-214.5 26h-260z" />
    <glyph glyph-name="thorn" unicode="&#xfe;" horiz-adv-x="1397" 
d="M158 1508h139v-620q83 114 191 171t241 57q232 0 397 -167t165 -402q0 -240 -163.5 -407.5t-394.5 -167.5q-130 0 -239 54t-197 161v-585h-139v1906zM718 981q-182 0 -306.5 -127t-124.5 -316q0 -124 55.5 -223t159 -157t218.5 -58q113 0 212.5 58.5t158.5 163.5t59 220
q0 116 -58.5 220t-157.5 161.5t-216 57.5z" />
    <glyph glyph-name="minus" unicode="&#x2212;" horiz-adv-x="1241" 
d="M115 804h1012v-137h-1012v137z" />
    <glyph glyph-name="multiply" unicode="&#xd7;" horiz-adv-x="1241" 
d="M712 735l332 -331l-92 -92l-331 331l-332 -331l-92 92l331 331l-331 332l92 92l332 -332l331 332l92 -92z" />
    <glyph glyph-name="uni00B9" unicode="&#xb9;" horiz-adv-x="680" 
d="M224 1489h187v-756h-110v658h-150z" />
    <glyph glyph-name="uni00B2" unicode="&#xb2;" horiz-adv-x="680" 
d="M155 1234h-106q2 119 85.5 196.5t216.5 77.5q124 0 202 -68.5t78 -163.5q0 -60 -33 -116t-143 -156l-190 -172h377v-99h-636l358 325q106 96 132 136.5t26 79.5q0 54 -49.5 95t-125.5 41q-85 0 -135 -46t-57 -130z" />
    <glyph glyph-name="uni00B3" unicode="&#xb3;" horiz-adv-x="705" 
d="M184 1293h-112q27 106 97 160.5t173 54.5q116 0 189.5 -60.5t73.5 -142.5q0 -87 -91 -146q67 -32 102.5 -84t35.5 -110q0 -101 -84.5 -175.5t-222.5 -74.5q-125 0 -201.5 61.5t-99.5 179.5h109q20 -73 67.5 -107.5t124.5 -34.5q90 0 143.5 43.5t53.5 101.5q0 66 -60 103
t-194 42v94q102 0 152 32.5t50 75.5q0 40 -40.5 71.5t-107.5 31.5q-55 0 -92 -26t-66 -90z" />
    <glyph glyph-name="onehalf" unicode="&#xbd;" horiz-adv-x="1702" 
d="M177 1489h187v-756h-110v658h-150zM277 -37l923 1545h112l-925 -1545h-110zM1088 492h-106q2 119 85.5 196.5t216.5 77.5q124 0 202 -68.5t78 -163.5q0 -60 -33 -116t-143 -156l-190 -172h377v-99h-636l358 325q106 96 132 136.5t26 79.5q0 54 -49.5 95t-125.5 41
q-85 0 -135 -46t-57 -130z" />
    <glyph glyph-name="onequarter" unicode="&#xbc;" horiz-adv-x="1702" 
d="M188 1489h187v-756h-110v658h-150zM388 -37l923 1545h112l-925 -1545h-110zM1554 786v-528h105v-97h-105v-170h-111v170h-432zM1443 258v248l-214 -248h214z" />
    <glyph glyph-name="threequarters" unicode="&#xbe;" horiz-adv-x="1702" 
d="M209 1293h-112q27 106 97 160.5t173 54.5q116 0 189.5 -60.5t73.5 -142.5q0 -87 -91 -146q67 -32 102.5 -84t35.5 -110q0 -101 -84.5 -175.5t-222.5 -74.5q-125 0 -201.5 61.5t-99.5 179.5h109q20 -73 67.5 -107.5t124.5 -34.5q90 0 143.5 43.5t53.5 101.5q0 66 -60 103
t-194 42v94q102 0 152 32.5t50 75.5q0 40 -40.5 71.5t-107.5 31.5q-55 0 -92 -26t-66 -90zM431 -37l923 1545h112l-925 -1545h-110zM1547 786v-528h105v-97h-105v-170h-111v170h-432zM1436 258v248l-214 -248h214z" />
    <glyph glyph-name="franc" unicode="&#x20a3;" horiz-adv-x="993" 
d="M325 415h281v-138h-281v-277h-146v277h-179v138h179v1056h737v-145h-591v-460h591v-145h-591v-306z" />
    <glyph glyph-name="Gbreve" unicode="&#x11e;" horiz-adv-x="1786" 
d="M1598 1224l-114 -108q-123 121 -269.5 183.5t-285.5 62.5q-173 0 -329.5 -85t-242.5 -230.5t-86 -307.5q0 -166 89 -315.5t246 -235t344 -85.5q227 0 384 128t186 332h-469v142h634q-2 -341 -202.5 -541.5t-536.5 -200.5q-408 0 -646 278q-183 214 -183 495
q0 209 105 389t288 281.5t414 101.5q187 0 352 -67.5t322 -216.5zM538 1818h132q34 -52 91 -78t136 -26q80 0 129 23t93 81h128q-22 -90 -112.5 -150.5t-238.5 -60.5q-147 0 -240 59.5t-118 151.5z" />
    <glyph glyph-name="gbreve" unicode="&#x11f;" horiz-adv-x="1378" 
d="M1093 1088h141v-867q0 -229 -40 -335q-55 -150 -191 -231t-327 -81q-140 0 -251.5 39.5t-181.5 106t-129 194.5h152q62 -108 160 -160t243 -52q143 0 241.5 53.5t140.5 134.5t42 261v56q-79 -100 -193 -153.5t-242 -53.5q-150 0 -282 74.5t-204 200.5t-72 277t75 281.5
t207.5 206.5t279.5 76q122 0 227.5 -50.5t203.5 -166.5v189zM680 981q-119 0 -221 -57.5t-160 -159t-58 -219.5q0 -179 120 -296t311 -117q193 0 310.5 116t117.5 305q0 123 -54 219.5t-153 152.5t-213 56zM335 1525h132q34 -52 91 -78t136 -26q80 0 129 23t93 81h128
q-22 -90 -112.5 -150.5t-238.5 -60.5q-147 0 -240 59.5t-118 151.5z" />
    <glyph glyph-name="Idotaccent" unicode="&#x130;" horiz-adv-x="463" 
d="M158 1471h147v-1471h-147v1471zM232 1811q48 0 82 -34t34 -82t-34 -82t-82 -34t-82 34t-34 82t34 82t82 34z" />
    <glyph glyph-name="Scedilla" unicode="&#x15e;" horiz-adv-x="1020" 
d="M27 274l125 75q132 -243 305 -243q74 0 139 34.5t99 92.5t34 123q0 74 -50 145q-69 98 -252 236q-184 139 -229 201q-78 104 -78 225q0 96 46 175t129.5 124.5t181.5 45.5q104 0 194.5 -51.5t191.5 -189.5l-120 -91q-83 110 -141.5 145t-127.5 35q-89 0 -145.5 -54
t-56.5 -133q0 -48 20 -93t73 -98q29 -28 190 -147q191 -141 262 -251t71 -221q0 -160 -121.5 -278t-295.5 -118q-134 0 -243 71.5t-201 239.5zM429 0h88l-17 -118q23 3 38 3q49 0 82 -30.5t33 -76.5q0 -66 -60 -112t-169 -46q-89 0 -167 30l22 69q64 -20 120 -20
q75 0 105 18.5t30 46.5q0 17 -16.5 30t-45.5 13q-24 0 -70 -9z" />
    <glyph glyph-name="scedilla" unicode="&#x15f;" horiz-adv-x="795" 
d="M703 969l-90 -93q-112 109 -219 109q-68 0 -116.5 -45t-48.5 -105q0 -53 40 -101q40 -49 168 -115q156 -81 212 -156q55 -76 55 -171q0 -134 -94 -227t-235 -93q-94 0 -179.5 41t-141.5 113l88 100q107 -121 227 -121q84 0 143 54t59 127q0 60 -39 107q-39 46 -176 116
q-147 76 -200 150t-53 169q0 124 84.5 206t213.5 82q150 0 302 -147zM340 0h88l-17 -118q23 3 38 3q49 0 82 -30.5t33 -76.5q0 -66 -60 -112t-169 -46q-89 0 -167 30l22 69q64 -20 120 -20q75 0 105 18.5t30 46.5q0 17 -16.5 30t-45.5 13q-24 0 -70 -9z" />
    <glyph glyph-name="Cacute" unicode="&#x106;" horiz-adv-x="1665" 
d="M1549 1198l-116 -89q-96 125 -230.5 189.5t-295.5 64.5q-176 0 -326 -84.5t-232.5 -227t-82.5 -320.5q0 -269 184.5 -449t465.5 -180q309 0 517 242l116 -88q-110 -140 -274.5 -216.5t-367.5 -76.5q-386 0 -609 257q-187 217 -187 524q0 323 226.5 543.5t567.5 220.5
q206 0 372 -81.5t272 -228.5zM985 1891h215l-295 -308h-138z" />
    <glyph glyph-name="cacute" unicode="&#x107;" horiz-adv-x="1325" 
d="M1212 862l-111 -69q-144 191 -393 191q-199 0 -330.5 -128t-131.5 -311q0 -119 60.5 -224t166 -163t236.5 -58q240 0 392 191l111 -73q-78 -117 -209.5 -181.5t-299.5 -64.5q-258 0 -428 164t-170 399q0 158 79.5 293.5t218.5 211.5t311 76q108 0 208.5 -33t170.5 -86
t119 -135zM767 1598h215l-295 -308h-138z" />
    <glyph glyph-name="Ccaron" unicode="&#x10c;" horiz-adv-x="1665" 
d="M1549 1198l-116 -89q-96 125 -230.5 189.5t-295.5 64.5q-176 0 -326 -84.5t-232.5 -227t-82.5 -320.5q0 -269 184.5 -449t465.5 -180q309 0 517 242l116 -88q-110 -140 -274.5 -216.5t-367.5 -76.5q-386 0 -609 257q-187 217 -187 524q0 323 226.5 543.5t567.5 220.5
q206 0 372 -81.5t272 -228.5zM971 1578h-139l-290 257h180l177 -152l183 152h186z" />
    <glyph glyph-name="ccaron" unicode="&#x10d;" horiz-adv-x="1325" 
d="M1212 862l-111 -69q-144 191 -393 191q-199 0 -330.5 -128t-131.5 -311q0 -119 60.5 -224t166 -163t236.5 -58q240 0 392 191l111 -73q-78 -117 -209.5 -181.5t-299.5 -64.5q-258 0 -428 164t-170 399q0 158 79.5 293.5t218.5 211.5t311 76q108 0 208.5 -33t170.5 -86
t119 -135zM777 1285h-139l-290 257h180l177 -152l183 152h186z" />
    <glyph glyph-name="dcroat" unicode="&#x111;" horiz-adv-x="1403" 
d="M1242 1331h160v-115h-160v-1216h-138v187q-88 -107 -197.5 -161t-239.5 -54q-231 0 -394.5 167.5t-163.5 407.5q0 235 165 402t397 167q134 0 242.5 -57t190.5 -171v328h-306v115h306v177h138v-177zM682 981q-117 0 -216 -57.5t-157.5 -161.5t-58.5 -220q0 -115 59 -220
t158.5 -163.5t213.5 -58.5q115 0 218 58t158.5 157t55.5 223q0 189 -124.5 316t-306.5 127z" />
    <glyph glyph-name="macron" unicode="&#xaf;" horiz-adv-x="1024" 
d="M-12 1727h1048v-103h-1048v103z" />
    <glyph glyph-name="periodcentered" unicode="&#xb7;" horiz-adv-x="682" 
d="M602 870q48 0 82 -34t34 -82t-34 -82t-82 -34t-82 34t-34 82t34 82t82 34z" />
    <glyph glyph-name="foursuperior" unicode="&#xf003;" horiz-adv-x="705" 
d="M562 1528v-528h105v-97h-105v-170h-111v170h-432zM451 1000v248l-214 -248h214z" />
    <glyph glyph-name="Abreve" unicode="&#x102;" horiz-adv-x="1515" 
d="M780 1471l686 -1471h-158l-231 484h-634l-230 -484h-164l695 1471h36zM762 1159l-253 -533h503zM410 1822h132q34 -52 91 -78t136 -26q80 0 129 23t93 81h128q-22 -90 -112.5 -150.5t-238.5 -60.5q-147 0 -240 59.5t-118 151.5z" />
    <glyph glyph-name="abreve" unicode="&#x103;" horiz-adv-x="1399" 
d="M1240 1088v-1088h-138v187q-88 -107 -197.5 -161t-239.5 -54q-231 0 -394.5 167.5t-163.5 407.5q0 235 165 402t397 167q134 0 242.5 -57t190.5 -171v200h138zM680 981q-117 0 -216 -57.5t-157.5 -161.5t-58.5 -220q0 -115 59 -220t158.5 -163.5t213.5 -58.5
q115 0 218 58t158.5 157t55.5 223q0 189 -124.5 316t-306.5 127zM310 1525h132q34 -52 91 -78t136 -26q80 0 129 23t93 81h128q-22 -90 -112.5 -150.5t-238.5 -60.5q-147 0 -240 59.5t-118 151.5z" />
    <glyph glyph-name="Aogonek" unicode="&#x104;" horiz-adv-x="1515" 
d="M780 1471l686 -1471h-158l-231 484h-634l-230 -484h-164l695 1471h36zM762 1159l-253 -533h503zM1316 0h109q-121 -103 -121 -193q0 -46 37.5 -78t108.5 -32q29 0 69 5l-9 -85q-42 -10 -85 -10q-111 0 -169.5 53t-58.5 127q0 130 119 213z" />
    <glyph glyph-name="aogonek" unicode="&#x105;" horiz-adv-x="1399" 
d="M1240 1088v-1088h-138v187q-88 -107 -197.5 -161t-239.5 -54q-231 0 -394.5 167.5t-163.5 407.5q0 235 165 402t397 167q134 0 242.5 -57t190.5 -171v200h138zM680 981q-117 0 -216 -57.5t-157.5 -161.5t-58.5 -220q0 -115 59 -220t158.5 -163.5t213.5 -58.5
q115 0 218 58t158.5 157t55.5 223q0 189 -124.5 316t-306.5 127zM1115 0h109q-121 -103 -121 -193q0 -46 37.5 -78t108.5 -32q29 0 69 5l-9 -85q-42 -10 -85 -10q-111 0 -169.5 53t-58.5 127q0 130 119 213z" />
    <glyph glyph-name="Dcaron" unicode="&#x10e;" horiz-adv-x="1524" 
d="M179 0v1471h305q330 0 479 -53q214 -75 334.5 -260t120.5 -441q0 -221 -95.5 -389t-248 -248t-427.5 -80h-468zM320 139h170q305 0 423 38q166 54 261 194.5t95 343.5q0 213 -103 364t-287 207q-138 42 -455 42h-104v-1189zM731 1578h-139l-290 257h180l177 -152l183 152
h186z" />
    <glyph glyph-name="dcaron" unicode="&#x10f;" horiz-adv-x="1403" 
d="M1242 1508v-1508h-138v187q-177 -215 -437 -215q-244 0 -401 174t-157 401q0 230 163.5 399.5t398.5 169.5q268 0 433 -228v620h138zM682 981q-186 0 -309 -131.5t-123 -307.5q0 -178 125.5 -310t305.5 -132q167 0 299.5 117t132.5 321q0 199 -128.5 321t-302.5 122z
M1398 1041l-65 38q53 104 59 195h-75v234h154v-146q0 -106 -14 -169t-59 -152z" />
    <glyph glyph-name="Dcroat" unicode="&#x110;" horiz-adv-x="1618" 
d="M213 667h-179v137h179v667h366q329 0 479 -53q213 -75 333.5 -260t120.5 -441q0 -221 -95.5 -389t-248 -248t-426.5 -80h-529v667zM354 667v-528h230q305 0 423 38q166 54 261.5 194.5t95.5 343.5q0 213 -103.5 364t-287.5 207q-138 42 -455 42h-164v-524h387v-137h-387z
" />
    <glyph glyph-name="Eogonek" unicode="&#x118;" horiz-adv-x="1098" 
d="M180 1471h843v-145h-696v-460h690v-144h-690v-577h690v-145h-837v1471zM816 0h109q-121 -103 -121 -193q0 -46 37.5 -78t108.5 -32q29 0 69 5l-9 -85q-42 -10 -85 -10q-111 0 -169.5 53t-58.5 127q0 130 119 213z" />
    <glyph glyph-name="eogonek" unicode="&#x119;" horiz-adv-x="1331" 
d="M1072 361l118 -62q-58 -114 -134 -184t-171 -106.5t-215 -36.5q-266 0 -416 174.5t-150 394.5q0 207 127 369q161 206 431 206q278 0 444 -211q118 -149 120 -372h-978q4 -190 121 -311.5t289 -121.5q83 0 161.5 29t133.5 77t119 155zM1072 654q-28 112 -81.5 179
t-141.5 108t-185 41q-160 0 -275 -103q-84 -75 -127 -225h810zM689 0h109q-121 -103 -121 -193q0 -46 37.5 -78t108.5 -32q29 0 69 5l-9 -85q-42 -10 -85 -10q-111 0 -169.5 53t-58.5 127q0 130 119 213z" />
    <glyph glyph-name="Ecaron" unicode="&#x11a;" horiz-adv-x="1098" 
d="M180 1471h843v-145h-696v-460h690v-144h-690v-577h690v-145h-837v1471zM675 1583h-139l-290 257h180l177 -152l183 152h186z" />
    <glyph glyph-name="ecaron" unicode="&#x11b;" horiz-adv-x="1331" 
d="M1072 361l118 -62q-58 -114 -134 -184t-171 -106.5t-215 -36.5q-266 0 -416 174.5t-150 394.5q0 207 127 369q161 206 431 206q278 0 444 -211q118 -149 120 -372h-978q4 -190 121 -311.5t289 -121.5q83 0 161.5 29t133.5 77t119 155zM1072 654q-28 112 -81.5 179
t-141.5 108t-185 41q-160 0 -275 -103q-84 -75 -127 -225h810zM732 1285h-139l-290 257h180l177 -152l183 152h186z" />
    <glyph glyph-name="IJ" unicode="&#x132;" horiz-adv-x="1450" 
d="M158 1471h147v-1471h-147v1471zM1124 1471h147v-993q0 -196 -25.5 -292.5t-113.5 -159.5t-216 -63q-183 0 -367 156l79 117q189 -136 288 -136q73 0 127 48t67.5 115.5t13.5 219.5v988z" />
    <glyph glyph-name="ij" unicode="&#x133;" horiz-adv-x="825" 
d="M205 1536q48 0 82 -34t34 -81q0 -48 -34 -82t-82 -34q-47 0 -81 34t-34 82q0 49 34.5 82t80.5 33zM618 1536q47 0 81 -33t34 -82q0 -48 -34 -82t-81 -34t-81 34t-34 82q0 49 34 82t81 33zM135 1088h141v-1088h-141v1088zM549 1088h142v-1252q0 -262 -185 -262
q-74 0 -160 34v126q54 -29 101 -29q39 0 63.5 21t31.5 48.5t7 102.5v1211z" />
    <glyph glyph-name="Lacute" unicode="&#x139;" horiz-adv-x="946" 
d="M179 1471h148v-1329h565v-142h-713v1471zM547 1896h215l-295 -308h-138z" />
    <glyph glyph-name="lacute" unicode="&#x13a;" horiz-adv-x="410" 
d="M135 1508h140v-1508h-140v1508zM297 1895h215l-295 -308h-138z" />
    <glyph glyph-name="Lcaron" unicode="&#x13d;" horiz-adv-x="946" 
d="M179 1471h148v-1329h565v-142h-713v1471zM558 922l-77 44q38 76 51 119t19 111h-88v275h181v-172q0 -129 -17.5 -202.5t-68.5 -174.5z" />
    <glyph glyph-name="lcaron" unicode="&#x13e;" horiz-adv-x="422" 
d="M134 1508h140v-1508h-140v1508zM430 1041l-66 38q53 104 60 195h-75v234h153v-146q0 -106 -13.5 -169t-58.5 -152z" />
    <glyph glyph-name="Ldot" unicode="&#x13f;" horiz-adv-x="946" 
d="M179 1471h148v-1329h565v-142h-713v1471zM612 870q48 0 82 -34t34 -82t-34 -82t-82 -34t-82 34t-34 82t34 82t82 34z" />
    <glyph glyph-name="ldot" unicode="&#x140;" horiz-adv-x="540" 
d="M135 1508h140v-1508h-140v1508zM472 870q48 0 82 -34t34 -82t-34 -82t-82 -34t-82 34t-34 82t34 82t82 34z" />
    <glyph glyph-name="Nacute" unicode="&#x143;" horiz-adv-x="1515" 
d="M180 0v1471h32l978 -1126v1126h145v-1471h-33l-970 1112v-1112h-152zM860 1895h215l-295 -308h-138z" />
    <glyph glyph-name="nacute" unicode="&#x144;" horiz-adv-x="1249" 
d="M156 1088h140v-195q84 112 186 167.5t222 55.5q122 0 216.5 -62t139.5 -167t45 -327v-560h-139v519q0 188 -16 251q-25 108 -94 162.5t-180 54.5q-127 0 -227.5 -84t-132.5 -208q-20 -81 -20 -296v-399h-140v1088zM667 1598h215l-295 -308h-138z" />
    <glyph glyph-name="Ncaron" unicode="&#x147;" horiz-adv-x="1515" 
d="M180 0v1471h32l978 -1126v1126h145v-1471h-33l-970 1112v-1112h-152zM830 1582h-139l-290 257h180l177 -152l183 152h186z" />
    <glyph glyph-name="ncaron" unicode="&#x148;" horiz-adv-x="1249" 
d="M156 1088h140v-195q84 112 186 167.5t222 55.5q122 0 216.5 -62t139.5 -167t45 -327v-560h-139v519q0 188 -16 251q-25 108 -94 162.5t-180 54.5q-127 0 -227.5 -84t-132.5 -208q-20 -81 -20 -296v-399h-140v1088zM755 1285h-139l-290 257h180l177 -152l183 152h186z" />
    <glyph glyph-name="napostrophe" unicode="&#x149;" horiz-adv-x="1254" 
d="M161 1088h140v-195q84 112 186 167.5t222 55.5q122 0 216.5 -62t139.5 -167t45 -327v-560h-139v519q0 188 -16 251q-25 108 -94 162.5t-180 54.5q-127 0 -227.5 -84t-132.5 -208q-20 -81 -20 -296v-399h-140v1088zM26 959l-77 44q38 76 51 119t19 111h-88v275h181v-172
q0 -129 -17.5 -202.5t-68.5 -174.5z" />
    <glyph glyph-name="Ohungarumlaut" unicode="&#x150;" horiz-adv-x="1780" 
d="M880 1508q334 0 559 -223t225 -549q0 -323 -224.5 -548t-547.5 -225q-327 0 -552 224t-225 542q0 212 102.5 393t279.5 283.5t383 102.5zM887 1364q-163 0 -309 -85t-228 -229t-82 -321q0 -262 181.5 -442.5t437.5 -180.5q171 0 316.5 83t227 227t81.5 320
q0 175 -81.5 316.5t-229.5 226.5t-314 85zM850 1896h215l-295 -308h-138zM1166 1896h215l-295 -308h-138z" />
    <glyph glyph-name="ohungarumlaut" unicode="&#x151;" horiz-adv-x="1341" 
d="M671 1116q251 0 416 -182q150 -166 150 -393q0 -228 -158.5 -398.5t-407.5 -170.5q-250 0 -408.5 170.5t-158.5 398.5q0 226 150 392q165 183 417 183zM671 979q-174 0 -299 -129t-125 -312q0 -118 57 -220t154 -157.5t213 -55.5t213 55.5t154 157.5t57 220
q0 183 -125.5 312t-298.5 129zM648 1598h215l-295 -308h-138zM964 1598h215l-295 -308h-138z" />
    <glyph glyph-name="Racute" unicode="&#x154;" horiz-adv-x="1243" 
d="M187 1471h293q245 0 332 -20q131 -30 213 -128.5t82 -242.5q0 -120 -56.5 -211t-161.5 -137.5t-290 -47.5l529 -684h-182l-528 684h-84v-684h-147v1471zM334 1327v-500l253 -2q147 0 217.5 28t110 89.5t39.5 137.5q0 74 -40 134.5t-105 86.5t-216 26h-259zM725 1895h215
l-295 -308h-138z" />
    <glyph glyph-name="racute" unicode="&#x155;" horiz-adv-x="616" 
d="M103 1088h143v-159q64 94 135 140.5t148 46.5q58 0 124 -37l-73 -118q-44 19 -74 19q-70 0 -135 -57.5t-99 -178.5q-26 -93 -26 -376v-368h-143v1088zM422 1598h215l-295 -308h-138z" />
    <glyph glyph-name="Rcaron" unicode="&#x158;" horiz-adv-x="1243" 
d="M187 1471h293q245 0 332 -20q131 -30 213 -128.5t82 -242.5q0 -120 -56.5 -211t-161.5 -137.5t-290 -47.5l529 -684h-182l-528 684h-84v-684h-147v1471zM334 1327v-500l253 -2q147 0 217.5 28t110 89.5t39.5 137.5q0 74 -40 134.5t-105 86.5t-216 26h-259zM653 1582h-139
l-290 257h180l177 -152l183 152h186z" />
    <glyph glyph-name="rcaron" unicode="&#x159;" horiz-adv-x="616" 
d="M103 1088h143v-159q64 94 135 140.5t148 46.5q58 0 124 -37l-73 -118q-44 19 -74 19q-70 0 -135 -57.5t-99 -178.5q-26 -93 -26 -376v-368h-143v1088zM398 1285h-139l-290 257h180l177 -152l183 152h186z" />
    <glyph glyph-name="Sacute" unicode="&#x15a;" horiz-adv-x="1020" 
d="M27 274l125 75q132 -243 305 -243q74 0 139 34.5t99 92.5t34 123q0 74 -50 145q-69 98 -252 236q-184 139 -229 201q-78 104 -78 225q0 96 46 175t129.5 124.5t181.5 45.5q104 0 194.5 -51.5t191.5 -189.5l-120 -91q-83 110 -141.5 145t-127.5 35q-89 0 -145.5 -54
t-56.5 -133q0 -48 20 -93t73 -98q29 -28 190 -147q191 -141 262 -251t71 -221q0 -160 -121.5 -278t-295.5 -118q-134 0 -243 71.5t-201 239.5zM552 1895h215l-295 -308h-138z" />
    <glyph glyph-name="sacute" unicode="&#x15b;" horiz-adv-x="795" 
d="M703 969l-90 -93q-112 109 -219 109q-68 0 -116.5 -45t-48.5 -105q0 -53 40 -101q40 -49 168 -115q156 -81 212 -156q55 -76 55 -171q0 -134 -94 -227t-235 -93q-94 0 -179.5 41t-141.5 113l88 100q107 -121 227 -121q84 0 143 54t59 127q0 60 -39 107q-39 46 -176 116
q-147 76 -200 150t-53 169q0 124 84.5 206t213.5 82q150 0 302 -147zM402 1598h215l-295 -308h-138z" />
    <glyph glyph-name="uni0162" unicode="&#x162;" horiz-adv-x="872" 
d="M33 1328v143h807v-143h-328v-1328h-150v1328h-329zM471 -427l-65 27q32 72 35 125h-83v154h157v-51q0 -167 -44 -255z" />
    <glyph glyph-name="uni0163" unicode="&#x163;" horiz-adv-x="694" 
d="M278 1492h141v-404h222v-120h-222v-968h-141v968h-191v120h191v404zM382 -427l-65 27q32 72 34 125h-82v154h156v-51q0 -167 -43 -255z" />
    <glyph glyph-name="Tcaron" unicode="&#x164;" horiz-adv-x="872" 
d="M33 1328v143h807v-143h-328v-1328h-150v1328h-329zM520 1578h-139l-290 257h180l177 -152l183 152h186z" />
    <glyph glyph-name="tcaron" unicode="&#x165;" horiz-adv-x="694" 
d="M592 1163l-59 26q53 83 56 155h-68v164h138v-103q0 -85 -11 -129.5t-56 -112.5zM278 1492h141v-404h222v-120h-222v-968h-141v968h-191v120h191v404z" />
    <glyph glyph-name="Uring" unicode="&#x16e;" horiz-adv-x="1341" 
d="M184 1471h147v-888q0 -158 6 -197q11 -87 51 -145.5t123 -98t167 -39.5q73 0 140 31t112 86t66 133q15 56 15 230v888h147v-888q0 -197 -38.5 -318.5t-154 -211.5t-279.5 -90q-178 0 -305 85t-170 225q-27 86 -27 310v888zM633 1989q88 0 150.5 -62.5t62.5 -151.5
q0 -88 -62 -150.5t-151 -62.5q-88 0 -150.5 62.5t-62.5 150.5q0 89 62.5 151.5t150.5 62.5zM632 1888q-46 0 -78 -32.5t-32 -77.5t32 -77.5t78 -32.5q45 0 77 32.5t32 77.5t-32 77.5t-77 32.5z" />
    <glyph glyph-name="uring" unicode="&#x16f;" horiz-adv-x="1245" 
d="M138 1088h141v-508q0 -186 20 -256q30 -100 114.5 -158t201.5 -58t198.5 56.5t112.5 148.5q21 63 21 267v508h143v-534q0 -225 -52.5 -339t-158 -178.5t-264.5 -64.5t-265.5 64.5t-159 180t-52.5 347.5v524zM584 1691q88 0 150.5 -62.5t62.5 -151.5q0 -88 -62 -150.5
t-151 -62.5q-88 0 -150.5 62.5t-62.5 150.5q0 89 62.5 151.5t150.5 62.5zM583 1590q-46 0 -78 -32.5t-32 -77.5t32 -77.5t78 -32.5q45 0 77 32.5t32 77.5t-32 77.5t-77 32.5z" />
    <glyph glyph-name="Uhungarumlaut" unicode="&#x170;" horiz-adv-x="1341" 
d="M184 1471h147v-888q0 -158 6 -197q11 -87 51 -145.5t123 -98t167 -39.5q73 0 140 31t112 86t66 133q15 56 15 230v888h147v-888q0 -197 -38.5 -318.5t-154 -211.5t-279.5 -90q-178 0 -305 85t-170 225q-27 86 -27 310v888zM648 1896h215l-295 -308h-138zM964 1896h215
l-295 -308h-138z" />
    <glyph glyph-name="uhungarumlaut" unicode="&#x171;" horiz-adv-x="1245" 
d="M138 1088h141v-508q0 -186 20 -256q30 -100 114.5 -158t201.5 -58t198.5 56.5t112.5 148.5q21 63 21 267v508h143v-534q0 -225 -52.5 -339t-158 -178.5t-264.5 -64.5t-265.5 64.5t-159 180t-52.5 347.5v524zM599 1598h215l-295 -308h-138zM915 1598h215l-295 -308h-138z
" />
    <glyph glyph-name="Zacute" unicode="&#x179;" horiz-adv-x="983" 
d="M122 1329v142h776l-615 -1328h584v-143h-811l619 1329h-553zM527 1895h215l-295 -308h-138z" />
    <glyph glyph-name="zacute" unicode="&#x17a;" horiz-adv-x="870" 
d="M67 1088h799l-616 -964h596v-124h-837l616 965h-558v123zM532 1598h215l-295 -308h-138z" />
    <glyph glyph-name="Zdotaccent" unicode="&#x17b;" horiz-adv-x="983" 
d="M122 1329v142h776l-615 -1328h584v-143h-811l619 1329h-553zM453 1815q48 0 82 -34t34 -82t-34 -82t-82 -34t-82 34t-34 82t34 82t82 34z" />
    <glyph glyph-name="zdotaccent" unicode="&#x17c;" horiz-adv-x="870" 
d="M67 1088h799l-616 -964h596v-124h-837l616 965h-558v123zM403 1518q48 0 82 -34t34 -82t-34 -82t-82 -34t-82 34t-34 82t34 82t82 34z" />
    <glyph glyph-name="noGamma" unicode="&#xf100;" horiz-adv-x="1111" 
d="M177 1467h889v-174h-695v-1293h-194v1467z" />
    <glyph glyph-name="noTheta" unicode="&#xf101;" horiz-adv-x="1530" 
d="M773 1503q299 0 470.5 -203.5t171.5 -568.5q0 -225 -73.5 -404t-221.5 -273t-344 -94q-211 0 -352.5 86.5t-225 261t-83.5 426.5q0 348 167.5 558.5t490.5 210.5zM773 1345q-214 0 -333 -150t-119 -458q0 -222 54 -351.5t150 -198.5t236 -69q211 0 330 149.5t119 477.5
q0 283 -115.5 441.5t-321.5 158.5zM492 829h547v-167h-547v167z" />
    <glyph glyph-name="noPhi" unicode="&#xf102;" horiz-adv-x="1713" 
d="M761 1503h194v-194q643 -23 643 -585q0 -565 -643 -587v-312h-194v312q-646 23 -646 587q0 264 150.5 417.5t495.5 167.5v194zM761 1155q-436 -4 -436 -432q0 -409 436 -434v866zM955 1155v-866q435 8 435 435q0 423 -435 431z" />
    <glyph glyph-name="noalpha" unicode="&#xf103;" horiz-adv-x="1287" 
d="M952 192q-137 -220 -372 -220q-227 0 -351.5 154t-124.5 381q0 263 130 418t352 155q244 0 361 -197l44 180h195q-71 -260 -71 -514q0 -289 84 -549h-202q-31 113 -45 192zM620 942q-146 0 -226 -109t-80 -312q0 -185 79 -298t227 -113q146 0 226.5 104.5t80.5 316.5
q0 186 -74.5 298.5t-232.5 112.5z" />
    <glyph glyph-name="nodelta" unicode="&#xf104;" horiz-adv-x="1270" 
d="M652 942q-159 123 -208.5 202t-49.5 163q0 116 99 182.5t273 66.5q124 0 231 -31v-132q-123 20 -187 20q-99 0 -155 -35.5t-56 -90.5q0 -43 31 -84t115 -108q244 -191 332.5 -325t88.5 -290q0 -215 -140.5 -361.5t-393.5 -146.5q-238 0 -383 144t-145 369q0 151 67 251.5
t167 157t223 56.5q36 0 91 -8zM641 841q-158 0 -243.5 -98t-85.5 -266q0 -171 87.5 -270t237.5 -99q138 0 228.5 93.5t90.5 273.5q0 154 -77.5 260t-237.5 106z" />
    <glyph glyph-name="noepsilon" unicode="&#xf105;" horiz-adv-x="1047" 
d="M943 -12q-102 -16 -197 -16q-300 0 -471 142.5t-171 408.5q0 242 153.5 399.5t456.5 157.5q100 0 216 -14v-147l-26 2q-129 9 -180 9q-366 0 -407 -320h605v-141h-607q3 -152 114 -249.5t344 -97.5q96 0 170 16v-150z" />
    <glyph glyph-name="nosigma" unicode="&#xf106;" horiz-adv-x="1398" 
d="M1019 912q142 -136 142 -383q0 -253 -138 -405t-388 -152q-246 0 -388.5 148.5t-142.5 407.5q0 258 141.5 405t362.5 147q42 0 156 -8q44 -4 132 -8h463v-152h-340zM640 955q-330 0 -330 -443q0 -180 81 -292t239 -112q165 0 244.5 113t79.5 316q0 181 -75.5 299.5
t-238.5 118.5z" />
    <glyph glyph-name="notau" unicode="&#xf107;" horiz-adv-x="981" 
d="M41 1063h900v-160h-353v-903h-194v903h-353v160z" />
    <glyph glyph-name="nophi" unicode="&#xf108;" horiz-adv-x="1580" 
d="M698 1332h188v-257q269 -4 429.5 -137t160.5 -393q0 -174 -55 -288t-195.5 -191t-341.5 -81v-372h-190v373q-246 2 -418 130.5t-172 420.5q0 270 160 400t434 140v255zM696 941q-132 -5 -214 -49t-124.5 -135.5t-42.5 -222.5q0 -410 381 -412v819zM886 941v-819
q380 3 380 414q0 400 -380 405z" />
    <glyph glyph-name="underscoredbl" unicode="&#x2017;" horiz-adv-x="1024" 
d="M-12 -146h1048v-103h-1048v103zM-12 -323h1048v-103h-1048v103z" />
    <glyph glyph-name="minute" unicode="&#x2032;" horiz-adv-x="405" 
d="M232 1045h-103l43 463h148z" />
    <glyph glyph-name="second" unicode="&#x2033;" horiz-adv-x="633" 
d="M540 1045h-104l44 463h148zM152 1045h-104l43 463h148z" />
    <glyph glyph-name="exclamdbl" unicode="&#x203c;" horiz-adv-x="1087" 
d="M373 1508v-1140h-145v1140h145zM855 1508v-1140h-144v1140h144zM302 220q49 0 86 -35t37 -89q0 -52 -36.5 -88t-86.5 -36t-86.5 36.5t-36.5 87.5q0 54 37 89t86 35zM785 220q50 0 86.5 -36t36.5 -88t-36.5 -88t-86.5 -36q-51 0 -87 36.5t-36 87.5q0 52 36 88t87 36z" />
    <glyph glyph-name="uni207F" unicode="&#x207f;" horiz-adv-x="729" 
d="M76 1256h115v-97q93 114 222 114q82 0 141 -48t79 -114.5t20 -185.5v-350h-115v326q0 106 -10 155.5t-46 80t-93 30.5q-66 0 -118.5 -47.5t-66 -106.5t-13.5 -185v-253h-115v681z" />
    <glyph glyph-name="peseta" unicode="&#x20a7;" horiz-adv-x="2219" 
d="M1097 1088h75v404h141v-404h380q62 28 132 28q154 0 302 -147l-90 -93q-108 109 -219 109q-61 0 -113 -42t-52 -108q0 -51 38 -99.5t170 -116.5q141 -73 204 -145.5t63 -181.5q0 -126 -90 -223t-240 -97q-100 0 -184 43.5t-136 110.5l88 100q107 -121 227 -121
q77 0 139 51t62 130q0 64 -42 110t-172 113q-134 70 -193.5 140.5t-59.5 178.5q0 75 34 140h-248v-968h-141v968h-90q-33 -116 -108 -179.5t-185.5 -84t-358.5 -20.5h-105v-684h-147v1471h293q242 0 350.5 -24.5t191 -119.5t84.5 -239zM325 1328v-500q220 -3 245 -3
q168 0 238.5 33t103.5 95t33 126q0 72 -40 135.5t-108 88.5t-212 25h-260z" />
    <glyph glyph-name="uni2105" unicode="&#x2105;" horiz-adv-x="1783" 
d="M690 1336l-94 -53q-72 118 -204 118q-105 0 -167.5 -76.5t-62.5 -172.5q0 -104 64.5 -179t165.5 -75q127 0 205 118l93 -56q-101 -166 -301 -166q-166 0 -254.5 111t-88.5 240q0 152 99 257.5t251 105.5q198 0 294 -172zM373 -37l924 1545h111l-925 -1545h-110zM1414 698
q140 0 231.5 -107.5t91.5 -251.5q0 -143 -90.5 -249.5t-232.5 -106.5q-138 0 -230 105t-92 251q0 145 91.5 252t230.5 107zM1414 587q-83 0 -144 -73.5t-61 -176.5t59 -174.5t146 -71.5q88 0 147 71.5t59 174.5t-61 176.5t-145 73.5z" />
    <glyph glyph-name="uni2113" unicode="&#x2113;" horiz-adv-x="734" 
d="M41 422l177 235v455q0 222 60 300.5t171 78.5q107 0 165 -70t58 -165q0 -96 -61 -230t-224 -361v-415q0 -83 13 -107.5t43 -24.5q52 0 199 107v-162q-104 -87 -225 -87q-97 0 -148 59t-51 182v225l-79 -98zM387 899q91 157 118 223.5t27 128.5q0 60 -22.5 90t-53.5 30
q-42 0 -55.5 -50.5t-13.5 -194.5v-227z" />
    <glyph glyph-name="arrowleft" unicode="&#x2190;" horiz-adv-x="2048" 
d="M492 876h76q-81 -170 -195 -309h1595v-101h-1595q102 -102 198 -309h-78q-223 253 -414 341v45q177 71 413 333z" />
    <glyph glyph-name="arrowup" unicode="&#x2191;" horiz-adv-x="1024" 
d="M153 1050q262 236 333 413h46q87 -192 340 -415v-77q-207 96 -309 197v-1597h-101v1597q-139 -114 -309 -195v77z" />
    <glyph glyph-name="arrowright" unicode="&#x2192;" horiz-adv-x="2048" 
d="M1555 876q237 -262 413 -333v-45q-191 -88 -414 -341h-77q95 207 197 309h-1595v101h1595q-114 139 -195 309h76z" />
    <glyph glyph-name="arrowdown" unicode="&#x2193;" horiz-adv-x="1024" 
d="M153 -16v76q170 -81 309 -195v1598h101v-1598q102 102 309 197v-77q-253 -223 -340 -414h-46q-71 176 -333 413z" />
    <glyph glyph-name="arrowboth" unicode="&#x2194;" horiz-adv-x="2048" 
d="M1968 540v-45q-181 -79 -406 -337h-80q69 172 194 311h-1305q125 -139 194 -311h-80q-224 258 -406 337v45q182 79 406 338h80q-69 -172 -194 -311h1305q-125 139 -194 311h80q225 -259 406 -338z" />
    <glyph glyph-name="arrowupdn" unicode="&#x2195;" horiz-adv-x="1024" 
d="M489 1463h45q79 -182 337 -407v-80q-171 69 -311 195v-1306q140 126 311 194v-79q-258 -225 -337 -407h-45q-79 182 -337 407v79q171 -68 311 -194v1306q-140 -126 -311 -195v80q258 225 337 407z" />
    <glyph glyph-name="arrowupdnbse" unicode="&#x21a8;" horiz-adv-x="1024" 
d="M489 1463h45q79 -182 337 -407v-80q-171 69 -311 195v-1306q140 126 311 194v-79q-258 -225 -337 -407h-45q-79 182 -337 407v79q171 -68 311 -194v1306q-140 -126 -311 -195v80q258 225 337 407zM154 -522h717v-98h-717v98z" />
    <glyph glyph-name="orthogonal" unicode="&#x221f;" horiz-adv-x="2005" 
d="M362 1279h100v-1179h1181v-100h-1281v1279z" />
    <glyph glyph-name="intersection" unicode="&#x2229;" horiz-adv-x="1206" 
d="M239 0h-110v621l2 238q1 116 18.5 209t58.5 169t106 135.5t139.5 89.5t149.5 30q118 0 225 -68.5t165 -174t71.5 -224t13.5 -404.5v-621h-110v628q0 243 -10 348.5t-52 190t-127.5 139.5t-175.5 55t-174.5 -55t-126 -137t-52.5 -189.5t-11 -351.5v-628z" />
    <glyph glyph-name="equivalence" unicode="&#x2261;" horiz-adv-x="1241" 
d="M1127 1205v-137h-1012v137h1012zM115 804h1012v-137h-1012v137zM1127 403v-137h-1012v137h1012z" />
    <glyph glyph-name="H22073" unicode="&#x25a1;" horiz-adv-x="1237" 
d="M146 944h944v-944h-944v944zM222 868v-792h792v792h-792z" />
    <glyph glyph-name="H18543" unicode="&#x25aa;" horiz-adv-x="726" 
d="M594 909v-464h-463v463z" />
    <glyph glyph-name="H18551" unicode="&#x25ab;" horiz-adv-x="726" 
d="M594 909v-464h-463v463zM518 833l-311 -1v-311h311v312z" />
    <glyph glyph-name="H18533" unicode="&#x25cf;" horiz-adv-x="1237" 
d="M619 1018q181 0 310.5 -129t129.5 -311t-129 -311.5t-311 -129.5t-311.5 129.5t-129.5 311.5q0 189 131.5 314.5t309.5 125.5z" />
    <glyph glyph-name="openbullet" unicode="&#x25e6;" horiz-adv-x="726" 
d="M363 928q101 0 176 -72t75 -179q0 -104 -73.5 -177.5t-177.5 -73.5t-177.5 73.5t-73.5 177.5t74 177.5t177 73.5zM363 852q-71 0 -123 -50t-52 -125q0 -73 51.5 -124t123.5 -51t123.5 51t51.5 124q0 74 -52 124.5t-123 50.5z" />
    <glyph glyph-name="commaaccent" unicode="&#xf004;" horiz-adv-x="682" 
d="M326 -121l122 -57l-183 -340l-89 38z" />
    <glyph glyph-name="Amacron" unicode="&#x100;" horiz-adv-x="1515" 
d="M780 1471l686 -1471h-158l-231 484h-634l-230 -484h-164l695 1471h36zM762 1159l-253 -533h503zM412 1776h690v-119h-690v119z" />
    <glyph glyph-name="amacron" unicode="&#x101;" horiz-adv-x="1399" 
d="M1240 1088v-1088h-138v187q-88 -107 -197.5 -161t-239.5 -54q-231 0 -394.5 167.5t-163.5 407.5q0 235 165 402t397 167q134 0 242.5 -57t190.5 -171v200h138zM680 981q-117 0 -216 -57.5t-157.5 -161.5t-58.5 -220q0 -115 59 -220t158.5 -163.5t213.5 -58.5
q115 0 218 58t158.5 157t55.5 223q0 189 -124.5 316t-306.5 127zM355 1479h690v-119h-690v119z" />
    <glyph glyph-name="Ccircumflex" unicode="&#x108;" horiz-adv-x="1665" 
d="M1549 1198l-116 -89q-96 125 -230.5 189.5t-295.5 64.5q-176 0 -326 -84.5t-232.5 -227t-82.5 -320.5q0 -269 184.5 -449t465.5 -180q309 0 517 242l116 -88q-110 -140 -274.5 -216.5t-367.5 -76.5q-386 0 -609 257q-187 217 -187 524q0 323 226.5 543.5t567.5 220.5
q206 0 372 -81.5t272 -228.5zM806 1840h139l290 -257h-180l-176 152l-184 -152h-186z" />
    <glyph glyph-name="ccircumflex" unicode="&#x109;" horiz-adv-x="1325" 
d="M1212 862l-111 -69q-144 191 -393 191q-199 0 -330.5 -128t-131.5 -311q0 -119 60.5 -224t166 -163t236.5 -58q240 0 392 191l111 -73q-78 -117 -209.5 -181.5t-299.5 -64.5q-258 0 -428 164t-170 399q0 158 79.5 293.5t218.5 211.5t311 76q108 0 208.5 -33t170.5 -86
t119 -135zM598 1542h139l290 -257h-180l-176 152l-184 -152h-186z" />
    <glyph glyph-name="Cdotaccent" unicode="&#x10a;" horiz-adv-x="1665" 
d="M1549 1198l-116 -89q-96 125 -230.5 189.5t-295.5 64.5q-176 0 -326 -84.5t-232.5 -227t-82.5 -320.5q0 -269 184.5 -449t465.5 -180q309 0 517 242l116 -88q-110 -140 -274.5 -216.5t-367.5 -76.5q-386 0 -609 257q-187 217 -187 524q0 323 226.5 543.5t567.5 220.5
q206 0 372 -81.5t272 -228.5zM878 1816q48 0 82 -34t34 -82t-34 -82t-82 -34t-82 34t-34 82t34 82t82 34z" />
    <glyph glyph-name="cdotaccent" unicode="&#x10b;" horiz-adv-x="1325" 
d="M1212 862l-111 -69q-144 191 -393 191q-199 0 -330.5 -128t-131.5 -311q0 -119 60.5 -224t166 -163t236.5 -58q240 0 392 191l111 -73q-78 -117 -209.5 -181.5t-299.5 -64.5q-258 0 -428 164t-170 399q0 158 79.5 293.5t218.5 211.5t311 76q108 0 208.5 -33t170.5 -86
t119 -135zM683 1518q48 0 82 -34t34 -82t-34 -82t-82 -34t-82 34t-34 82t34 82t82 34z" />
    <glyph glyph-name="Emacron" unicode="&#x112;" horiz-adv-x="1098" 
d="M180 1471h843v-145h-696v-460h690v-144h-690v-577h690v-145h-837v1471zM252 1776h690v-119h-690v119z" />
    <glyph glyph-name="emacron" unicode="&#x113;" horiz-adv-x="1331" 
d="M1072 361l118 -62q-58 -114 -134 -184t-171 -106.5t-215 -36.5q-266 0 -416 174.5t-150 394.5q0 207 127 369q161 206 431 206q278 0 444 -211q118 -149 120 -372h-978q4 -190 121 -311.5t289 -121.5q83 0 161.5 29t133.5 77t119 155zM1072 654q-28 112 -81.5 179
t-141.5 108t-185 41q-160 0 -275 -103q-84 -75 -127 -225h810zM320 1479h690v-119h-690v119z" />
    <glyph glyph-name="Ebreve" unicode="&#x114;" horiz-adv-x="1098" 
d="M180 1471h843v-145h-696v-460h690v-144h-690v-577h690v-145h-837v1471zM195 1823h132q34 -52 91 -78t136 -26q80 0 129 23t93 81h128q-22 -90 -112.5 -150.5t-238.5 -60.5q-147 0 -240 59.5t-118 151.5z" />
    <glyph glyph-name="ebreve" unicode="&#x115;" horiz-adv-x="1331" 
d="M1072 361l118 -62q-58 -114 -134 -184t-171 -106.5t-215 -36.5q-266 0 -416 174.5t-150 394.5q0 207 127 369q161 206 431 206q278 0 444 -211q118 -149 120 -372h-978q4 -190 121 -311.5t289 -121.5q83 0 161.5 29t133.5 77t119 155zM1072 654q-28 112 -81.5 179
t-141.5 108t-185 41q-160 0 -275 -103q-84 -75 -127 -225h810zM311 1525h132q34 -52 91 -78t136 -26q80 0 129 23t93 81h128q-22 -90 -112.5 -150.5t-238.5 -60.5q-147 0 -240 59.5t-118 151.5z" />
    <glyph glyph-name="Edotaccent" unicode="&#x116;" horiz-adv-x="1098" 
d="M180 1471h843v-145h-696v-460h690v-144h-690v-577h690v-145h-837v1471zM602 1816q48 0 82 -34t34 -82t-34 -82t-82 -34t-82 34t-34 82t34 82t82 34z" />
    <glyph glyph-name="edotaccent" unicode="&#x117;" horiz-adv-x="1331" 
d="M1072 361l118 -62q-58 -114 -134 -184t-171 -106.5t-215 -36.5q-266 0 -416 174.5t-150 394.5q0 207 127 369q161 206 431 206q278 0 444 -211q118 -149 120 -372h-978q4 -190 121 -311.5t289 -121.5q83 0 161.5 29t133.5 77t119 155zM1072 654q-28 112 -81.5 179
t-141.5 108t-185 41q-160 0 -275 -103q-84 -75 -127 -225h810zM665 1518q48 0 82 -34t34 -82t-34 -82t-82 -34t-82 34t-34 82t34 82t82 34z" />
    <glyph glyph-name="Gcircumflex" unicode="&#x11c;" horiz-adv-x="1786" 
d="M1598 1224l-114 -108q-123 121 -269.5 183.5t-285.5 62.5q-173 0 -329.5 -85t-242.5 -230.5t-86 -307.5q0 -166 89 -315.5t246 -235t344 -85.5q227 0 384 128t186 332h-469v142h634q-2 -341 -202.5 -541.5t-536.5 -200.5q-408 0 -646 278q-183 214 -183 495
q0 209 105 389t288 281.5t414 101.5q187 0 352 -67.5t322 -216.5zM835 1840h139l290 -257h-180l-176 152l-184 -152h-186z" />
    <glyph glyph-name="gcircumflex" unicode="&#x11d;" horiz-adv-x="1378" 
d="M1093 1088h141v-867q0 -229 -40 -335q-55 -150 -191 -231t-327 -81q-140 0 -251.5 39.5t-181.5 106t-129 194.5h152q62 -108 160 -160t243 -52q143 0 241.5 53.5t140.5 134.5t42 261v56q-79 -100 -193 -153.5t-242 -53.5q-150 0 -282 74.5t-204 200.5t-72 277t75 281.5
t207.5 206.5t279.5 76q122 0 227.5 -50.5t203.5 -166.5v189zM680 981q-119 0 -221 -57.5t-160 -159t-58 -219.5q0 -179 120 -296t311 -117q193 0 310.5 116t117.5 305q0 123 -54 219.5t-153 152.5t-213 56zM600 1542h139l290 -257h-180l-176 152l-184 -152h-186z" />
    <glyph glyph-name="Gdotaccent" unicode="&#x120;" horiz-adv-x="1786" 
d="M1598 1224l-114 -108q-123 121 -269.5 183.5t-285.5 62.5q-173 0 -329.5 -85t-242.5 -230.5t-86 -307.5q0 -166 89 -315.5t246 -235t344 -85.5q227 0 384 128t186 332h-469v142h634q-2 -341 -202.5 -541.5t-536.5 -200.5q-408 0 -646 278q-183 214 -183 495
q0 209 105 389t288 281.5t414 101.5q187 0 352 -67.5t322 -216.5zM913 1816q48 0 82 -34t34 -82t-34 -82t-82 -34t-82 34t-34 82t34 82t82 34z" />
    <glyph glyph-name="gdotaccent" unicode="&#x121;" horiz-adv-x="1378" 
d="M1093 1088h141v-867q0 -229 -40 -335q-55 -150 -191 -231t-327 -81q-140 0 -251.5 39.5t-181.5 106t-129 194.5h152q62 -108 160 -160t243 -52q143 0 241.5 53.5t140.5 134.5t42 261v56q-79 -100 -193 -153.5t-242 -53.5q-150 0 -282 74.5t-204 200.5t-72 277t75 281.5
t207.5 206.5t279.5 76q122 0 227.5 -50.5t203.5 -166.5v189zM680 981q-119 0 -221 -57.5t-160 -159t-58 -219.5q0 -179 120 -296t311 -117q193 0 310.5 116t117.5 305q0 123 -54 219.5t-153 152.5t-213 56zM692 1518q48 0 82 -34t34 -82t-34 -82t-82 -34t-82 34t-34 82
t34 82t82 34z" />
    <glyph glyph-name="uni0122" unicode="&#x122;" horiz-adv-x="1786" 
d="M1598 1224l-114 -108q-123 121 -269.5 183.5t-285.5 62.5q-173 0 -329.5 -85t-242.5 -230.5t-86 -307.5q0 -166 89 -315.5t246 -235t344 -85.5q227 0 384 128t186 332h-469v142h634q-2 -341 -202.5 -541.5t-536.5 -200.5q-408 0 -646 278q-183 214 -183 495
q0 209 105 389t288 281.5t414 101.5q187 0 352 -67.5t322 -216.5zM872 0h88l-17 -118q23 3 38 3q49 0 82 -30.5t33 -76.5q0 -66 -60 -112t-169 -46q-89 0 -167 30l22 69q64 -20 120 -20q75 0 105 18.5t30 46.5q0 17 -16.5 30t-45.5 13q-24 0 -70 -9z" />
    <glyph glyph-name="uni0123" unicode="&#x123;" horiz-adv-x="1378" 
d="M1093 1088h141v-867q0 -229 -40 -335q-55 -150 -191 -231t-327 -81q-140 0 -251.5 39.5t-181.5 106t-129 194.5h152q62 -108 160 -160t243 -52q143 0 241.5 53.5t140.5 134.5t42 261v56q-79 -100 -193 -153.5t-242 -53.5q-150 0 -282 74.5t-204 200.5t-72 277t75 281.5
t207.5 206.5t279.5 76q122 0 227.5 -50.5t203.5 -166.5v189zM680 981q-119 0 -221 -57.5t-160 -159t-58 -219.5q0 -179 120 -296t311 -117q193 0 310.5 116t117.5 305q0 123 -54 219.5t-153 152.5t-213 56zM679 1818l78 -44q-38 -76 -51 -119t-20 -111h89v-275h-181v172
q0 129 17.5 202.5t67.5 174.5z" />
    <glyph glyph-name="Hcircumflex" unicode="&#x124;" horiz-adv-x="1399" 
d="M177 1471h148v-617h748v617h148v-1471h-148v710h-748v-710h-148v1471zM633 1840h139l290 -257h-180l-176 152l-184 -152h-186z" />
    <glyph glyph-name="hcircumflex" unicode="&#x125;" horiz-adv-x="1249" 
d="M156 1508h140v-615q85 112 187 167.5t221 55.5q122 0 216.5 -62t139.5 -166.5t45 -327.5v-560h-140v519q0 188 -15 251q-26 108 -94.5 162.5t-179.5 54.5q-127 0 -227.5 -84t-132.5 -208q-20 -80 -20 -296v-399h-140v1508zM558 1840h139l290 -257h-180l-176 152
l-184 -152h-186z" />
    <glyph glyph-name="Hbar" unicode="&#x126;" horiz-adv-x="1399" 
d="M326 1239h747v232h148v-232h133v-138h-133v-1101h-148v710h-747v-710h-148v1101h-133v138h133v232h148v-232zM326 1101v-247h747v247h-747z" />
    <glyph glyph-name="hbar" unicode="&#x127;" horiz-adv-x="1249" 
d="M296 1356h374v-116h-374v-347q169 223 407 223q142 0 241 -78.5t130 -184t31 -293.5v-560h-140v519q0 189 -20.5 274t-89 139.5t-179.5 54.5q-96 0 -172 -44t-126.5 -118t-66 -152.5t-15.5 -273.5v-399h-140v1240h-152v116h152v152h140v-152z" />
    <glyph glyph-name="Itilde" unicode="&#x128;" horiz-adv-x="463" 
d="M158 1471h147v-1471h-147v1471zM528 1790l70 -97q-72 -52 -121.5 -70t-104.5 -18q-72 0 -148 37q-65 32 -83 37q-24 7 -52 7q-35 0 -66.5 -12.5t-91.5 -56.5l-66 102q91 97 225 97q64 0 153 -40q85 -39 134 -39q55 0 151 53z" />
    <glyph glyph-name="itilde" unicode="&#x129;" horiz-adv-x="410" 
d="M135 1088h141v-1088h-141v1088zM501 1492l70 -97q-72 -52 -121.5 -70t-104.5 -18q-72 0 -148 37q-65 32 -83 37q-24 7 -52 7q-35 0 -66.5 -12.5t-91.5 -56.5l-66 102q91 97 225 97q64 0 153 -40q85 -39 134 -39q55 0 151 53z" />
    <glyph glyph-name="Imacron" unicode="&#x12a;" horiz-adv-x="463" 
d="M158 1471h147v-1471h-147v1471zM-113 1776h690v-119h-690v119z" />
    <glyph glyph-name="imacron" unicode="&#x12b;" horiz-adv-x="410" 
d="M135 1088h141v-1088h-141v1088zM-140 1479h690v-119h-690v119z" />
    <glyph glyph-name="Ibreve" unicode="&#x12c;" horiz-adv-x="463" 
d="M158 1471h147v-1471h-147v1471zM-123 1823h132q34 -52 91 -78t136 -26q80 0 129 23t93 81h128q-22 -90 -112.5 -150.5t-238.5 -60.5q-147 0 -240 59.5t-118 151.5z" />
    <glyph glyph-name="ibreve" unicode="&#x12d;" horiz-adv-x="410" 
d="M135 1088h141v-1088h-141v1088zM-149 1525h132q34 -52 91 -78t136 -26q80 0 129 23t93 81h128q-22 -90 -112.5 -150.5t-238.5 -60.5q-147 0 -240 59.5t-118 151.5z" />
    <glyph glyph-name="Iogonek" unicode="&#x12e;" horiz-adv-x="463" 
d="M158 1471h147v-1471h-147v1471zM196 0h109q-121 -103 -121 -193q0 -46 37.5 -78t108.5 -32q29 0 69 5l-9 -85q-42 -10 -85 -10q-111 0 -169.5 53t-58.5 127q0 130 119 213z" />
    <glyph glyph-name="iogonek" unicode="&#x12f;" horiz-adv-x="410" 
d="M205 1536q48 0 82 -34t34 -82q0 -47 -34 -81t-82 -34q-47 0 -81 34t-34 81q0 48 34 82t81 34zM135 1088h141v-1088h-141v1088zM167 0h109q-121 -103 -121 -193q0 -46 37.5 -78t108.5 -32q29 0 69 5l-9 -85q-42 -10 -85 -10q-111 0 -169.5 53t-58.5 127q0 130 119 213z
" />
    <glyph glyph-name="Jcircumflex" unicode="&#x134;" horiz-adv-x="987" 
d="M660 1471h148v-993q0 -229 -35.5 -318.5t-118.5 -143t-201 -53.5q-89 0 -175.5 34.5t-191.5 121.5l78 117q115 -81 191 -114q50 -22 98 -22q63 0 114.5 38t72 101t20.5 244v988zM559 1840h139l290 -257h-180l-176 152l-184 -152h-186z" />
    <glyph glyph-name="jcircumflex" unicode="&#x135;" horiz-adv-x="416" 
d="M142 1542h139l290 -257h-180l-176 152l-184 -152h-186zM139 1088h142v-1252q0 -262 -185 -262q-74 0 -160 34v126q54 -29 102 -29q38 0 62.5 21t31.5 48.5t7 102.5v1211z" />
    <glyph glyph-name="uni0136" unicode="&#x136;" horiz-adv-x="1210" 
d="M179 1471h150v-552l587 552h199l-707 -660l762 -811h-195l-646 686v-686h-150v1471zM494 -127q46 15 95 15q157 0 157 -110q0 -69 -62.5 -113.5t-167.5 -44.5q-62 0 -145 22l22 71q68 -14 104 -14q130 0 130 65q0 43 -73 43q-27 0 -72 -13z" />
    <glyph glyph-name="uni0137" unicode="&#x137;" horiz-adv-x="1028" 
d="M155 1508h141v-858l503 438h206l-597 -519l632 -569h-198l-546 489v-489h-141v1508zM419 -127q46 15 95 15q157 0 157 -110q0 -69 -62.5 -113.5t-167.5 -44.5q-62 0 -145 22l22 71q68 -14 104 -14q130 0 130 65q0 43 -73 43q-27 0 -72 -13z" />
    <glyph glyph-name="kgreenlandic" unicode="&#x138;" horiz-adv-x="1028" 
d="M155 1088h141v-438l503 438h206l-597 -519l632 -569h-198l-546 489v-489h-141v1088z" />
    <glyph glyph-name="uni013B" unicode="&#x13b;" horiz-adv-x="946" 
d="M179 1471h148v-1329h565v-142h-713v1471zM408 -127q46 15 95 15q157 0 157 -110q0 -69 -62.5 -113.5t-167.5 -44.5q-62 0 -145 22l22 71q68 -14 104 -14q130 0 130 65q0 43 -73 43q-27 0 -72 -13z" />
    <glyph glyph-name="uni013C" unicode="&#x13c;" horiz-adv-x="410" 
d="M135 1508h140v-1508h-140v1508zM106 -127q46 15 95 15q157 0 157 -110q0 -69 -62.5 -113.5t-167.5 -44.5q-62 0 -145 22l22 71q68 -14 104 -14q130 0 130 65q0 43 -73 43q-27 0 -72 -13z" />
    <glyph glyph-name="uni0145" unicode="&#x145;" horiz-adv-x="1515" 
d="M180 0v1471h32l978 -1126v1126h145v-1471h-33l-970 1112v-1112h-152zM658 -127q46 15 95 15q157 0 157 -110q0 -69 -62.5 -113.5t-167.5 -44.5q-62 0 -145 22l22 71q68 -14 104 -14q130 0 130 65q0 43 -73 43q-27 0 -72 -13z" />
    <glyph glyph-name="uni0146" unicode="&#x146;" horiz-adv-x="1249" 
d="M156 1088h140v-195q84 112 186 167.5t222 55.5q122 0 216.5 -62t139.5 -167t45 -327v-560h-139v519q0 188 -16 251q-25 108 -94 162.5t-180 54.5q-127 0 -227.5 -84t-132.5 -208q-20 -81 -20 -296v-399h-140v1088zM526 -127q46 15 95 15q157 0 157 -110
q0 -69 -62.5 -113.5t-167.5 -44.5q-62 0 -145 22l22 71q68 -14 104 -14q130 0 130 65q0 43 -73 43q-27 0 -72 -13z" />
    <glyph glyph-name="Eng" unicode="&#x14a;" horiz-adv-x="1591" 
d="M529 151l105 91q103 -140 262 -140q185 0 305.5 184t120.5 453q0 274 -155.5 452t-382.5 178q-136 0 -257.5 -70.5t-200.5 -179.5v-1119h-148v1471h148v-178q197 215 479 215q296 0 483.5 -225t187.5 -556q0 -336 -167 -550t-418 -214q-219 0 -362 188z" />
    <glyph glyph-name="eng" unicode="&#x14b;" horiz-adv-x="1249" 
d="M1105 560v-724q0 -262 -187 -262q-72 0 -157 34v126q53 -29 101 -29q40 0 64.5 21t32 48.5t7.5 102.5v642q0 189 -21 274t-89.5 139.5t-179.5 54.5q-96 0 -172 -44t-126.5 -118t-66 -152.5t-15.5 -273.5v-399h-140v1088h140v-195q168 223 407 223q141 0 239.5 -77.5
t130.5 -183.5t32 -295z" />
    <glyph glyph-name="Omacron" unicode="&#x14c;" horiz-adv-x="1780" 
d="M880 1508q334 0 559 -223t225 -549q0 -323 -224.5 -548t-547.5 -225q-327 0 -552 224t-225 542q0 212 102.5 393t279.5 283.5t383 102.5zM887 1364q-163 0 -309 -85t-228 -229t-82 -321q0 -262 181.5 -442.5t437.5 -180.5q171 0 316.5 83t227 227t81.5 320
q0 175 -81.5 316.5t-229.5 226.5t-314 85zM545 1777h690v-119h-690v119z" />
    <glyph glyph-name="omacron" unicode="&#x14d;" horiz-adv-x="1341" 
d="M671 1116q251 0 416 -182q150 -166 150 -393q0 -228 -158.5 -398.5t-407.5 -170.5q-250 0 -408.5 170.5t-158.5 398.5q0 226 150 392q165 183 417 183zM671 979q-174 0 -299 -129t-125 -312q0 -118 57 -220t154 -157.5t213 -55.5t213 55.5t154 157.5t57 220
q0 183 -125.5 312t-298.5 129zM326 1479h690v-119h-690v119z" />
    <glyph glyph-name="Obreve" unicode="&#x14e;" horiz-adv-x="1780" 
d="M880 1508q334 0 559 -223t225 -549q0 -323 -224.5 -548t-547.5 -225q-327 0 -552 224t-225 542q0 212 102.5 393t279.5 283.5t383 102.5zM887 1364q-163 0 -309 -85t-228 -229t-82 -321q0 -262 181.5 -442.5t437.5 -180.5q171 0 316.5 83t227 227t81.5 320
q0 175 -81.5 316.5t-229.5 226.5t-314 85zM535 1823h132q34 -52 91 -78t136 -26q80 0 129 23t93 81h128q-22 -90 -112.5 -150.5t-238.5 -60.5q-147 0 -240 59.5t-118 151.5z" />
    <glyph glyph-name="obreve" unicode="&#x14f;" horiz-adv-x="1341" 
d="M671 1116q251 0 416 -182q150 -166 150 -393q0 -228 -158.5 -398.5t-407.5 -170.5q-250 0 -408.5 170.5t-158.5 398.5q0 226 150 392q165 183 417 183zM671 979q-174 0 -299 -129t-125 -312q0 -118 57 -220t154 -157.5t213 -55.5t213 55.5t154 157.5t57 220
q0 183 -125.5 312t-298.5 129zM316 1525h132q34 -52 91 -78t136 -26q80 0 129 23t93 81h128q-22 -90 -112.5 -150.5t-238.5 -60.5q-147 0 -240 59.5t-118 151.5z" />
    <glyph glyph-name="uni0156" unicode="&#x156;" horiz-adv-x="1243" 
d="M187 1471h293q245 0 332 -20q131 -30 213 -128.5t82 -242.5q0 -120 -56.5 -211t-161.5 -137.5t-290 -47.5l529 -684h-182l-528 684h-84v-684h-147v1471zM334 1327v-500l253 -2q147 0 217.5 28t110 89.5t39.5 137.5q0 74 -40 134.5t-105 86.5t-216 26h-259zM504 -127
q46 15 95 15q157 0 157 -110q0 -69 -62.5 -113.5t-167.5 -44.5q-62 0 -145 22l22 71q68 -14 104 -14q130 0 130 65q0 43 -73 43q-27 0 -72 -13z" />
    <glyph glyph-name="uni0157" unicode="&#x157;" horiz-adv-x="616" 
d="M103 1088h143v-159q64 94 135 140.5t148 46.5q58 0 124 -37l-73 -118q-44 19 -74 19q-70 0 -135 -57.5t-99 -178.5q-26 -93 -26 -376v-368h-143v1088zM196 -127q46 15 95 15q157 0 157 -110q0 -69 -62.5 -113.5t-167.5 -44.5q-62 0 -145 22l22 71q68 -14 104 -14
q130 0 130 65q0 43 -73 43q-27 0 -72 -13z" />
    <glyph glyph-name="Scircumflex" unicode="&#x15c;" horiz-adv-x="1020" 
d="M27 274l125 75q132 -243 305 -243q74 0 139 34.5t99 92.5t34 123q0 74 -50 145q-69 98 -252 236q-184 139 -229 201q-78 104 -78 225q0 96 46 175t129.5 124.5t181.5 45.5q104 0 194.5 -51.5t191.5 -189.5l-120 -91q-83 110 -141.5 145t-127.5 35q-89 0 -145.5 -54
t-56.5 -133q0 -48 20 -93t73 -98q29 -28 190 -147q191 -141 262 -251t71 -221q0 -160 -121.5 -278t-295.5 -118q-134 0 -243 71.5t-201 239.5zM444 1840h139l290 -257h-180l-176 152l-184 -152h-186z" />
    <glyph glyph-name="scircumflex" unicode="&#x15d;" horiz-adv-x="795" 
d="M703 969l-90 -93q-112 109 -219 109q-68 0 -116.5 -45t-48.5 -105q0 -53 40 -101q40 -49 168 -115q156 -81 212 -156q55 -76 55 -171q0 -134 -94 -227t-235 -93q-94 0 -179.5 41t-141.5 113l88 100q107 -121 227 -121q84 0 143 54t59 127q0 60 -39 107q-39 46 -176 116
q-147 76 -200 150t-53 169q0 124 84.5 206t213.5 82q150 0 302 -147zM332 1542h139l290 -257h-180l-176 152l-184 -152h-186z" />
    <glyph glyph-name="Tbar" unicode="&#x166;" horiz-adv-x="872" 
d="M512 777h280v-138h-280v-639h-150v639h-281v138h281v551h-329v143h807v-143h-328v-551z" />
    <glyph glyph-name="tbar" unicode="&#x167;" horiz-adv-x="694" 
d="M419 607h246v-116h-246v-491h-140v491h-216v116h216v361h-192v120h192v404h140v-404h222v-120h-222v-361z" />
    <glyph glyph-name="Utilde" unicode="&#x168;" horiz-adv-x="1341" 
d="M184 1471h147v-888q0 -158 6 -197q11 -87 51 -145.5t123 -98t167 -39.5q73 0 140 31t112 86t66 133q15 56 15 230v888h147v-888q0 -197 -38.5 -318.5t-154 -211.5t-279.5 -90q-178 0 -305 85t-170 225q-27 86 -27 310v888zM975 1789l70 -97q-72 -52 -121.5 -70
t-104.5 -18q-72 0 -148 37q-65 32 -83 37q-24 7 -52 7q-35 0 -66.5 -12.5t-91.5 -56.5l-66 102q91 97 225 97q64 0 153 -40q85 -39 134 -39q55 0 151 53z" />
    <glyph glyph-name="utilde" unicode="&#x169;" horiz-adv-x="1245" 
d="M138 1088h141v-508q0 -186 20 -256q30 -100 114.5 -158t201.5 -58t198.5 56.5t112.5 148.5q21 63 21 267v508h143v-534q0 -225 -52.5 -339t-158 -178.5t-264.5 -64.5t-265.5 64.5t-159 180t-52.5 347.5v524zM919 1492l70 -97q-72 -52 -121.5 -70t-104.5 -18
q-72 0 -148 37q-65 32 -83 37q-24 7 -52 7q-35 0 -66.5 -12.5t-91.5 -56.5l-66 102q91 97 225 97q64 0 153 -40q85 -39 134 -39q55 0 151 53z" />
    <glyph glyph-name="Umacron" unicode="&#x16a;" horiz-adv-x="1341" 
d="M184 1471h147v-888q0 -158 6 -197q11 -87 51 -145.5t123 -98t167 -39.5q73 0 140 31t112 86t66 133q15 56 15 230v888h147v-888q0 -197 -38.5 -318.5t-154 -211.5t-279.5 -90q-178 0 -305 85t-170 225q-27 86 -27 310v888zM325 1777h690v-119h-690v119z" />
    <glyph glyph-name="umacron" unicode="&#x16b;" horiz-adv-x="1245" 
d="M138 1088h141v-508q0 -186 20 -256q30 -100 114.5 -158t201.5 -58t198.5 56.5t112.5 148.5q21 63 21 267v508h143v-534q0 -225 -52.5 -339t-158 -178.5t-264.5 -64.5t-265.5 64.5t-159 180t-52.5 347.5v524zM277 1479h690v-119h-690v119z" />
    <glyph glyph-name="Ubreve" unicode="&#x16c;" horiz-adv-x="1341" 
d="M184 1471h147v-888q0 -158 6 -197q11 -87 51 -145.5t123 -98t167 -39.5q73 0 140 31t112 86t66 133q15 56 15 230v888h147v-888q0 -197 -38.5 -318.5t-154 -211.5t-279.5 -90q-178 0 -305 85t-170 225q-27 86 -27 310v888zM316 1823h132q34 -52 91 -78t136 -26
q80 0 129 23t93 81h128q-22 -90 -112.5 -150.5t-238.5 -60.5q-147 0 -240 59.5t-118 151.5z" />
    <glyph glyph-name="ubreve" unicode="&#x16d;" horiz-adv-x="1245" 
d="M138 1088h141v-508q0 -186 20 -256q30 -100 114.5 -158t201.5 -58t198.5 56.5t112.5 148.5q21 63 21 267v508h143v-534q0 -225 -52.5 -339t-158 -178.5t-264.5 -64.5t-265.5 64.5t-159 180t-52.5 347.5v524zM268 1525h132q34 -52 91 -78t136 -26q80 0 129 23t93 81h128
q-22 -90 -112.5 -150.5t-238.5 -60.5q-147 0 -240 59.5t-118 151.5z" />
    <glyph glyph-name="Uogonek" unicode="&#x172;" horiz-adv-x="1341" 
d="M184 1471h147v-888q0 -158 6 -197q11 -87 51 -145.5t123 -98t167 -39.5q73 0 140 31t112 86t66 133q15 56 15 230v888h147v-888q0 -197 -38.5 -318.5t-154 -211.5t-279.5 -90q-178 0 -305 85t-170 225q-27 86 -27 310v888zM680 0h109q-121 -103 -121 -193q0 -46 37.5 -78
t108.5 -32q29 0 69 5l-9 -85q-42 -10 -85 -10q-111 0 -169.5 53t-58.5 127q0 130 119 213z" />
    <glyph glyph-name="uogonek" unicode="&#x173;" horiz-adv-x="1245" 
d="M138 1088h141v-508q0 -186 20 -256q30 -100 114.5 -158t201.5 -58t198.5 56.5t112.5 148.5q21 63 21 267v508h143v-534q0 -225 -52.5 -339t-158 -178.5t-264.5 -64.5t-265.5 64.5t-159 180t-52.5 347.5v524zM601 0h109q-121 -103 -121 -193q0 -46 37.5 -78t108.5 -32
q29 0 69 5l-9 -85q-42 -10 -85 -10q-111 0 -169.5 53t-58.5 127q0 130 119 213z" />
    <glyph glyph-name="Wcircumflex" unicode="&#x174;" horiz-adv-x="1966" 
d="M96 1471h151l299 -1060l422 1060h30l417 -1060l305 1060h150l-422 -1471h-28l-436 1113l-445 -1113h-28zM917 1840h139l290 -257h-180l-176 152l-184 -152h-186z" />
    <glyph glyph-name="wcircumflex" unicode="&#x175;" horiz-adv-x="1702" 
d="M9 1088h144l333 -790l349 790h25l348 -790l339 790h146l-472 -1088h-27l-346 779l-349 -779h-26zM785 1542h139l290 -257h-180l-176 152l-184 -152h-186z" />
    <glyph glyph-name="Ycircumflex" unicode="&#x176;" horiz-adv-x="1212" 
d="M63 1471h170l376 -606l370 606h170l-466 -768v-703h-145v703zM540 1840h139l290 -257h-180l-176 152l-184 -152h-186z" />
    <glyph glyph-name="ycircumflex" unicode="&#x177;" horiz-adv-x="1098" 
d="M39 1088h148l374 -838l363 838h149l-649 -1486h-148l210 480zM483 1542h139l290 -257h-180l-176 152l-184 -152h-186z" />
    <glyph glyph-name="longs" unicode="&#x17f;" horiz-adv-x="410" 
d="M517 1508v-137q-74 33 -132 33q-44 0 -73.5 -20t-33 -50.5t-3.5 -98.5v-1235h-140v1198q0 151 13.5 204.5t67 93.5t138.5 40q72 0 163 -28z" />
    <glyph glyph-name="Aringacute" unicode="&#x1fa;" horiz-adv-x="1515" 
d="M780 1471l686 -1471h-158l-231 484h-634l-230 -484h-164l695 1471h36zM762 1159l-253 -533h503zM762 1822q88 0 150.5 -62.5t62.5 -151.5q0 -88 -62 -150.5t-151 -62.5q-88 0 -150.5 62.5t-62.5 150.5q0 89 62.5 151.5t150.5 62.5zM761 1721q-46 0 -78 -32.5t-32 -77.5
t32 -77.5t78 -32.5q45 0 77 32.5t32 77.5t-32 77.5t-77 32.5zM800 2170h215l-295 -308h-138z" />
    <glyph glyph-name="aringacute" unicode="&#x1fb;" horiz-adv-x="1399" 
d="M1240 1088v-1088h-138v187q-88 -107 -197.5 -161t-239.5 -54q-231 0 -394.5 167.5t-163.5 407.5q0 235 165 402t397 167q134 0 242.5 -57t190.5 -171v200h138zM680 981q-117 0 -216 -57.5t-157.5 -161.5t-58.5 -220q0 -115 59 -220t158.5 -163.5t213.5 -58.5
q115 0 218 58t158.5 157t55.5 223q0 189 -124.5 316t-306.5 127zM701 1650q88 0 150.5 -62.5t62.5 -151.5q0 -88 -62 -150.5t-151 -62.5q-88 0 -150.5 62.5t-62.5 150.5q0 89 62.5 151.5t150.5 62.5zM700 1549q-46 0 -78 -32.5t-32 -77.5t32 -77.5t78 -32.5q45 0 77 32.5
t32 77.5t-32 77.5t-77 32.5zM745 1998h215l-295 -308h-138z" />
    <glyph glyph-name="AEacute" unicode="&#x1fc;" horiz-adv-x="2032" 
d="M1 0l950 1471h910v-151h-693v-452h693v-145h-693v-579h693v-144h-842v482h-535l-312 -482h-171zM578 620h441v681zM1299 1895h215l-295 -308h-138z" />
    <glyph glyph-name="aeacute" unicode="&#x1fd;" horiz-adv-x="2370" 
d="M1245 1088v-197q106 127 205 176t232 49q246 0 406.5 -164.5t159.5 -421.5h-979q4 -116 62 -219t153.5 -157t211.5 -54q125 0 224 61.5t173 195.5l120 -60q-74 -155 -213 -240t-314 -85q-154 0 -275 69q-87 49 -166 153v-194h-128v201q-89 -111 -173 -159
q-120 -70 -263 -70q-231 0 -396 167.5t-165 408.5q0 156 74 285.5t205 206t278 76.5q141 0 264 -69q87 -50 176 -157v198h128zM2093 651q-28 114 -81 181t-141 108.5t-181 41.5q-95 0 -184.5 -42.5t-146.5 -113t-82 -175.5h816zM687 981q-114 0 -213.5 -57t-155 -157.5
t-55.5 -222.5q0 -188 124 -313.5t305 -125.5t304.5 124.5t123.5 312.5q0 131 -53.5 228t-156 154t-223.5 57zM1252 1598h215l-295 -308h-138z" />
    <glyph glyph-name="Oslashacute" unicode="&#x1fe;" horiz-adv-x="1778" 
d="M1454 1269q100 -102 154.5 -238.5t54.5 -294.5q0 -323 -224.5 -548t-547.5 -225q-245 0 -437 128l-164 -194l-107 87l165 194q-234 227 -234 551q0 212 103 393.5t281 283.5t391 102q257 0 467 -148l144 174l105 -87zM444 291l811 954q-169 119 -369 119q-163 0 -309 -85
t-228 -229t-82 -322q0 -255 177 -437zM1356 1153l-805 -949q152 -98 335 -98q171 0 316.5 83t227 227t81.5 320q0 244 -155 417zM957 1896h215l-295 -308h-138z" />
    <glyph glyph-name="oslashacute" unicode="&#x1ff;" horiz-adv-x="1337" 
d="M1102 913q133 -161 133 -372q0 -228 -158.5 -398.5t-407.5 -170.5q-164 0 -299 82l-116 -137l-89 74l114 134q-177 171 -177 416q0 228 158 401.5t408 173.5q201 0 351 -120l116 137l92 -74zM367 229l560 658q-118 92 -258 92q-111 0 -209.5 -58.5t-156.5 -162
t-58 -220.5q0 -86 32.5 -168.5t89.5 -140.5zM1007 802l-548 -644q103 -53 209 -53q116 0 213.5 55.5t154.5 157.5t57 219q0 144 -86 265zM730 1598h215l-295 -308h-138z" />
    <glyph glyph-name="tonos" unicode="&#x384;" horiz-adv-x="774" 
d="M474 1598l-28 -338h-118l-29 338h175z" />
    <glyph glyph-name="dieresistonos" unicode="&#x385;" horiz-adv-x="774" 
d="M474 1598l-28 -338h-118l-29 338h175zM633 1291q-37 0 -63 26t-26 63q0 38 26 63.5t63 25.5t62.5 -26t25.5 -63t-25.5 -63t-62.5 -26zM141 1291q-37 0 -63 26t-26 63t26 63t63 26t63 -25.5t26 -63.5q0 -37 -26 -63t-63 -26z" />
    <glyph glyph-name="Alphatonos" unicode="&#x386;" horiz-adv-x="1515" 
d="M780 1471l686 -1471h-158l-231 484h-634l-230 -484h-164l695 1471h36zM762 1159l-253 -533h503zM424 1508l-28 -338h-118l-29 338h175z" />
    <glyph glyph-name="anoteleia" unicode="&#x387;" horiz-adv-x="567" 
d="M433 992q0 -52 -35.5 -88t-87.5 -36t-87.5 36t-35.5 88t35.5 88t87.5 36t87.5 -36t35.5 -88z" />
    <glyph glyph-name="Epsilontonos" unicode="&#x388;" horiz-adv-x="1188" 
d="M270 1471h843v-145h-696v-460h690v-144h-690v-577h690v-145h-837v1471zM75 1508l-28 -338h-118l-29 338h175z" />
    <glyph glyph-name="Etatonos" unicode="&#x389;" horiz-adv-x="1489" 
d="M267 1471h148v-617h748v617h148v-1471h-148v710h-748v-710h-148v1471zM75 1508l-28 -338h-118l-29 338h175z" />
    <glyph glyph-name="Iotatonos" unicode="&#x38a;" horiz-adv-x="553" 
d="M248 1471h147v-1471h-147v1471zM75 1508l-28 -338h-118l-29 338h175z" />
    <glyph glyph-name="Omicrontonos" unicode="&#x38c;" horiz-adv-x="1780" 
d="M880 1508q334 0 559 -223t225 -549q0 -323 -224.5 -548t-547.5 -225q-327 0 -552 224t-225 542q0 212 102.5 393t279.5 283.5t383 102.5zM887 1364q-163 0 -309 -85t-228 -229t-82 -321q0 -262 181.5 -442.5t437.5 -180.5q171 0 316.5 83t227 227t81.5 320
q0 175 -81.5 316.5t-229.5 226.5t-314 85zM75 1508l-28 -338h-118l-29 338h175z" />
    <glyph glyph-name="Upsilontonos" unicode="&#x38e;" horiz-adv-x="1322" 
d="M173 1471h170l376 -606l370 606h170l-466 -768v-703h-145v703zM75 1508l-28 -338h-118l-29 338h175z" />
    <glyph glyph-name="Omegatonos" unicode="&#x38f;" horiz-adv-x="1713" 
d="M1103 138h433v-138h-561v196q298 194 377 333t79 292q0 248 -159 395t-415 147t-415.5 -147.5t-159.5 -394.5q0 -152 75 -288.5t381 -336.5v-196h-561v138h433q-291 181 -385.5 338t-94.5 347q0 305 205 494.5t522 189.5t521.5 -189.5t204.5 -494.5q0 -190 -94.5 -347
t-385.5 -338zM75 1508l-28 -338h-118l-29 338h175z" />
    <glyph glyph-name="iotadieresistonos" unicode="&#x390;" horiz-adv-x="410" 
d="M135 1088h141v-1088h-141v1088zM293 1598l-28 -338h-118l-29 338h175zM452 1291q-37 0 -63 26t-26 63q0 38 26 63.5t63 25.5t62.5 -26t25.5 -63t-25.5 -63t-62.5 -26zM-40 1291q-37 0 -63 26t-26 63t26 63t63 26t63 -25.5t26 -63.5q0 -37 -26 -63t-63 -26z" />
    <glyph glyph-name="Alpha" unicode="&#x391;" horiz-adv-x="1515" 
d="M780 1471l686 -1471h-158l-231 484h-634l-230 -484h-164l695 1471h36zM762 1159l-253 -533h503z" />
    <glyph glyph-name="Beta" unicode="&#x392;" horiz-adv-x="1176" 
d="M183 1471h290q175 0 269 -41.5t148.5 -127.5t54.5 -191q0 -98 -48 -178.5t-141 -130.5q115 -39 177 -91.5t96.5 -127t34.5 -161.5q0 -177 -129.5 -299.5t-347.5 -122.5h-404v1471zM327 1327v-471h84q153 0 225 28.5t114 90t42 136.5q0 101 -70.5 158.5t-224.5 57.5h-170z
M327 708v-564h182q161 0 236 31.5t120.5 98.5t45.5 145q0 98 -64 171t-176 100q-75 18 -261 18h-83z" />
    <glyph glyph-name="Gamma" unicode="&#x393;" horiz-adv-x="946" 
d="M914 1326h-591v-1326h-146v1471h737v-145z" />
    <glyph glyph-name="uni0394" unicode="&#x394;" horiz-adv-x="1515" 
d="M1466 0h-1417l695 1471h36zM1239 145l-477 1014l-481 -1014h958z" />
    <glyph glyph-name="Epsilon" unicode="&#x395;" horiz-adv-x="1098" 
d="M180 1471h843v-145h-696v-460h690v-144h-690v-577h690v-145h-837v1471z" />
    <glyph glyph-name="Zeta" unicode="&#x396;" horiz-adv-x="983" 
d="M122 1329v142h776l-615 -1328h584v-143h-811l619 1329h-553z" />
    <glyph glyph-name="Eta" unicode="&#x397;" horiz-adv-x="1399" 
d="M177 1471h148v-617h748v617h148v-1471h-148v710h-748v-710h-148v1471z" />
    <glyph glyph-name="Theta" unicode="&#x398;" horiz-adv-x="1780" 
d="M892 -37q-326 0 -551.5 221.5t-225.5 544.5q0 326 223 552.5t542 226.5q333 0 558.5 -220.5t225.5 -551.5q0 -325 -223.5 -549t-548.5 -224zM887 1364q-248 0 -433.5 -180.5t-185.5 -454.5q0 -261 179 -442t440 -181t443 179t182 451q0 291 -194.5 459.5t-430.5 168.5z
M1258 672h-737v144h737v-144z" />
    <glyph glyph-name="Iota" unicode="&#x399;" horiz-adv-x="463" 
d="M158 1471h147v-1471h-147v1471z" />
    <glyph glyph-name="Kappa" unicode="&#x39a;" horiz-adv-x="1210" 
d="M179 1471h150v-552l587 552h199l-707 -660l762 -811h-195l-646 686v-686h-150v1471z" />
    <glyph glyph-name="Lambda" unicode="&#x39b;" horiz-adv-x="1438" 
d="M1370 0h-160l-487 1137l-496 -1137h-160l640 1471h32z" />
    <glyph glyph-name="Mu" unicode="&#x39c;" horiz-adv-x="1882" 
d="M112 0l209 1471h24l598 -1207l592 1207h24l211 -1471h-145l-144 1052l-520 -1052h-37l-527 1060l-143 -1060h-142z" />
    <glyph glyph-name="Nu" unicode="&#x39d;" horiz-adv-x="1515" 
d="M180 0v1471h32l978 -1126v1126h145v-1471h-33l-970 1112v-1112h-152z" />
    <glyph glyph-name="Xi" unicode="&#x39e;" horiz-adv-x="1087" 
d="M972 1326h-857v145h857v-145zM972 722h-857v144h857v-144zM972 0h-857v145h857v-145z" />
    <glyph glyph-name="Omicron" unicode="&#x39f;" horiz-adv-x="1780" 
d="M880 1508q334 0 559 -223t225 -549q0 -323 -224.5 -548t-547.5 -225q-327 0 -552 224t-225 542q0 212 102.5 393t279.5 283.5t383 102.5zM887 1364q-163 0 -309 -85t-228 -229t-82 -321q0 -262 181.5 -442.5t437.5 -180.5q171 0 316.5 83t227 227t81.5 320
q0 175 -81.5 316.5t-229.5 226.5t-314 85z" />
    <glyph glyph-name="Pi" unicode="&#x3a0;" horiz-adv-x="1399" 
d="M1221 0h-148v1331h-748v-1331h-148v1471h1044v-1471z" />
    <glyph glyph-name="Rho" unicode="&#x3a1;" horiz-adv-x="1212" 
d="M178 1471h293q252 0 340 -22q126 -31 206 -127.5t80 -242.5q0 -147 -78 -242.5t-215 -128.5q-100 -24 -374 -24h-105v-684h-147v1471zM325 1328v-500l249 -3q151 0 221 27.5t110 89t40 137.5q0 74 -40 135.5t-105.5 87.5t-214.5 26h-260z" />
    <glyph glyph-name="Sigma" unicode="&#x3a3;" horiz-adv-x="1027" 
d="M927 0h-861l411 734l-405 737h840v-142h-600l330 -596l-333 -590h618v-143z" />
    <glyph glyph-name="Tau" unicode="&#x3a4;" horiz-adv-x="872" 
d="M33 1328v143h807v-143h-328v-1328h-150v1328h-329z" />
    <glyph glyph-name="Upsilon" unicode="&#x3a5;" horiz-adv-x="1212" 
d="M63 1471h170l376 -606l370 606h170l-466 -768v-703h-145v703z" />
    <glyph glyph-name="Phi" unicode="&#x3a6;" horiz-adv-x="1760" 
d="M954 145v-145h-148v145q-324 21 -515 179.5t-191 419.5q0 260 193 421t513 180v126h148v-126q324 -21 515 -179.5t191 -419.5q0 -260 -193 -421t-513 -180zM954 1209v-927q237 15 395.5 124.5t158.5 339.5q0 205 -146.5 325.5t-407.5 137.5zM806 282v927
q-237 -15 -395.5 -124.5t-158.5 -339.5q0 -205 146.5 -325.5t407.5 -137.5z" />
    <glyph glyph-name="Chi" unicode="&#x3a7;" horiz-adv-x="1247" 
d="M101 1471h172l352 -574l355 574h170l-438 -713l467 -758h-172l-382 617l-384 -617h-172l469 758z" />
    <glyph glyph-name="Psi" unicode="&#x3a8;" horiz-adv-x="1620" 
d="M1480 964q0 -206 -59.5 -325.5t-198.5 -194.5t-338 -85v-359h-148v359q-185 10 -314 71t-205.5 178t-76.5 367v496h151v-448q0 -182 28.5 -277.5t135.5 -163t281 -81.5v970h148v-970q182 14 286.5 84t131.5 160.5t27 277.5v448h151v-507z" />
    <glyph glyph-name="uni03A9" unicode="&#x3a9;" horiz-adv-x="1713" 
d="M1103 138h433v-138h-561v196q298 194 377 333t79 292q0 248 -159 395t-415 147t-415.5 -147.5t-159.5 -394.5q0 -152 75 -288.5t381 -336.5v-196h-561v138h433q-291 181 -385.5 338t-94.5 347q0 305 205 494.5t522 189.5t521.5 -189.5t204.5 -494.5q0 -190 -94.5 -347
t-385.5 -338z" />
    <glyph glyph-name="Iotadieresis" unicode="&#x3aa;" horiz-adv-x="463" 
d="M158 1471h147v-1471h-147v1471zM28 1816q48 0 82 -34t34 -82t-34 -82t-82 -34t-82 34t-34 82t34 82t82 34zM436 1816q48 0 82 -34t34 -82t-34 -82t-82 -34t-82 34t-34 82t34 82t82 34z" />
    <glyph glyph-name="Upsilondieresis" unicode="&#x3ab;" horiz-adv-x="1212" 
d="M63 1471h170l376 -606l370 606h170l-466 -768v-703h-145v703zM402 1816q48 0 82 -34t34 -82t-34 -82t-82 -34t-82 34t-34 82t34 82t82 34zM810 1816q48 0 82 -34t34 -82t-34 -82t-82 -34t-82 34t-34 82t34 82t82 34z" />
    <glyph glyph-name="alphatonos" unicode="&#x3ac;" horiz-adv-x="1399" 
d="M1240 1088v-1088h-138v187q-88 -107 -197.5 -161t-239.5 -54q-231 0 -394.5 167.5t-163.5 407.5q0 235 165 402t397 167q134 0 242.5 -57t190.5 -171v200h138zM680 981q-117 0 -216 -57.5t-157.5 -161.5t-58.5 -220q0 -115 59 -220t158.5 -163.5t213.5 -58.5
q115 0 218 58t158.5 157t55.5 223q0 189 -124.5 316t-306.5 127zM787 1598l-28 -338h-118l-29 338h175z" />
    <glyph glyph-name="epsilontonos" unicode="&#x3ad;" horiz-adv-x="866" 
d="M827 116q-136 -145 -359 -145q-160 0 -262.5 93t-102.5 246q0 205 196 287q-150 61 -150 231q0 129 91.5 209.5t228.5 80.5q165 0 312 -123l-79 -97q-114 88 -227 88q-88 0 -139.5 -47.5t-51.5 -130.5q0 -78 53 -128t134 -50h73v-120h-86q-88 0 -146.5 -57t-58.5 -144
q0 -96 62 -151.5t165 -55.5q158 0 259 114zM520 1598l-28 -338h-118l-29 338h175z" />
    <glyph glyph-name="etatonos" unicode="&#x3ae;" horiz-adv-x="1249" 
d="M1105 -398h-139v917q0 163 -16 254t-85.5 152.5t-188.5 61.5q-130 0 -228.5 -83.5t-125 -183t-26.5 -321.5v-399h-140v1088h140v-195q167 223 408 223q117 0 211 -58.5t142 -163.5t48 -334v-958zM712 1598l-28 -338h-118l-29 338h175z" />
    <glyph glyph-name="iotatonos" unicode="&#x3af;" horiz-adv-x="410" 
d="M135 1088h141v-1088h-141v1088zM292 1598l-28 -338h-118l-29 338h175z" />
    <glyph glyph-name="upsilondieresistonos" unicode="&#x3b0;" horiz-adv-x="1219" 
d="M135 1088h141v-508q0 -163 18 -250.5t103 -154.5t215 -67q177 0 268.5 118t91.5 318q0 273 -254 445l77 128q320 -188 320 -599q0 -240 -136 -393t-367 -153q-214 0 -345.5 125t-131.5 467v524zM697 1598l-28 -338h-118l-29 338h175zM856 1291q-37 0 -63 26t-26 63
q0 38 26 63.5t63 25.5t62.5 -26t25.5 -63t-25.5 -63t-62.5 -26zM364 1291q-37 0 -63 26t-26 63t26 63t63 26t63 -25.5t26 -63.5q0 -37 -26 -63t-63 -26z" />
    <glyph glyph-name="alpha" unicode="&#x3b1;" horiz-adv-x="1399" 
d="M1240 1088v-1088h-138v187q-88 -107 -197.5 -161t-239.5 -54q-231 0 -394.5 167.5t-163.5 407.5q0 235 165 402t397 167q134 0 242.5 -57t190.5 -171v200h138zM680 981q-117 0 -216 -57.5t-157.5 -161.5t-58.5 -220q0 -115 59 -220t158.5 -163.5t213.5 -58.5
q115 0 218 58t158.5 157t55.5 223q0 189 -124.5 316t-306.5 127z" />
    <glyph glyph-name="beta" unicode="&#x3b2;" horiz-adv-x="1221" 
d="M297 164v-562h-141v1505q0 230 119 329.5t281 99.5q166 0 263.5 -88.5t97.5 -236.5q0 -231 -219 -311q192 -19 306 -137t114 -301q0 -209 -139 -349.5t-344 -140.5q-214 0 -338 192zM435 805v117q339 9 339 275q0 92 -56.5 149.5t-150.5 57.5q-131 0 -200.5 -72
t-69.5 -258l1 -613q0 -162 98 -259t237 -97q145 0 243.5 100.5t98.5 247.5q0 145 -99.5 248.5t-370.5 103.5h-70z" />
    <glyph glyph-name="gamma" unicode="&#x3b3;" horiz-adv-x="1135" 
d="M1077 1088l-442 -966v-520h-138v522l-444 964h149l364 -792l361 792h150z" />
    <glyph glyph-name="delta" unicode="&#x3b4;" horiz-adv-x="1171" 
d="M445 906q-165 111 -165 290q0 151 116.5 245.5t288.5 94.5q126 0 238 -28l-36 -125q-84 22 -191 22q-126 0 -199.5 -56.5t-73.5 -148.5q0 -80 49 -137t258 -141q337 -135 337 -466q0 -204 -138.5 -344t-342.5 -140t-343 139.5t-139 344.5q0 330 341 450zM586 806
q-142 0 -240.5 -104t-98.5 -249q0 -146 97.5 -247t241.5 -101t241.5 101t97.5 247q0 145 -98.5 249t-240.5 104zM586 939z" />
    <glyph glyph-name="epsilon" unicode="&#x3b5;" horiz-adv-x="866" 
d="M827 116q-136 -145 -359 -145q-160 0 -262.5 93t-102.5 246q0 205 196 287q-150 61 -150 231q0 129 91.5 209.5t228.5 80.5q165 0 312 -123l-79 -97q-114 88 -227 88q-88 0 -139.5 -47.5t-51.5 -130.5q0 -78 53 -128t134 -50h73v-120h-86q-88 0 -146.5 -57t-58.5 -144
q0 -96 62 -151.5t165 -55.5q158 0 259 114z" />
    <glyph glyph-name="zeta" unicode="&#x3b6;" horiz-adv-x="953" 
d="M388 -406l36 126q63 -16 119 -16q247 0 247 158q0 59 -55 94t-207 64q-410 79 -410 485q0 211 146 419t472 461h-503v123h675v-123q-360 -303 -503.5 -495.5t-143.5 -374.5q0 -156 71.5 -245.5t260.5 -128.5q229 -47 284.5 -112.5t54.5 -160.5q0 -138 -105.5 -216
t-273.5 -78q-87 0 -165 20z" />
    <glyph glyph-name="eta" unicode="&#x3b7;" horiz-adv-x="1249" 
d="M1105 -398h-139v917q0 163 -16 254t-85.5 152.5t-188.5 61.5q-130 0 -228.5 -83.5t-125 -183t-26.5 -321.5v-399h-140v1088h140v-195q167 223 408 223q117 0 211 -58.5t142 -163.5t48 -334v-958z" />
    <glyph glyph-name="theta" unicode="&#x3b8;" horiz-adv-x="1341" 
d="M671 -28q-269 0 -418 209.5t-149 568.5q0 360 149.5 573t417.5 213t417 -213t149 -573q0 -358 -148.5 -568t-417.5 -210zM1093 816q-13 274 -123 433t-299 159t-299 -158t-124 -434h845zM1094 693h-846q11 -280 120 -436.5t303 -156.5t303 155.5t120 437.5z" />
    <glyph glyph-name="iota" unicode="&#x3b9;" horiz-adv-x="410" 
d="M135 1088h141v-1088h-141v1088z" />
    <glyph glyph-name="kappa" unicode="&#x3ba;" horiz-adv-x="1028" 
d="M1040 0h-198l-546 489v-489h-141v1089h141v-439l503 438h206l-597 -519z" />
    <glyph glyph-name="lambda" unicode="&#x3bb;" horiz-adv-x="1098" 
d="M1073 0h-149l-363 838l-374 -838h-148l447 1006l-220 502h148z" />
    <glyph glyph-name="uni03BC" unicode="&#x3bc;" horiz-adv-x="1249" 
d="M1093 1h-140v195q-168 -223 -408 -223q-174 0 -261 116v-487h-140v1487h140v-519q0 -163 16 -254t85.5 -152.5t187.5 -61.5q130 0 228.5 83.5t125 183t26.5 321.5v399h140v-1088z" />
    <glyph glyph-name="nu" unicode="&#x3bd;" horiz-adv-x="1135" 
d="M53 1088h149l364 -792l361 792h150l-498 -1088h-25z" />
    <glyph glyph-name="xi" unicode="&#x3be;" horiz-adv-x="953" 
d="M388 -406l36 126q63 -16 119 -16q247 0 247 158q0 51 -44.5 86.5t-236.5 71.5q-391 74 -391 455q0 145 83.5 255t227.5 155q-229 113 -229 311q0 159 121.5 249.5t313.5 90.5q154 0 279 -37l-33 -134q-115 40 -265 40q-124 0 -198.5 -63.5t-74.5 -165.5
q0 -112 113.5 -179t264.5 -67h119v-122h-202q-147 0 -262 -79t-115 -244q0 -140 68.5 -221.5t241.5 -119.5q207 -46 284 -97.5t77 -178.5q0 -138 -105.5 -216t-273.5 -78q-87 0 -165 20z" />
    <glyph glyph-name="omicron" unicode="&#x3bf;" horiz-adv-x="1341" 
d="M671 1116q251 0 416 -182q150 -166 150 -393q0 -228 -158.5 -398.5t-407.5 -170.5q-250 0 -408.5 170.5t-158.5 398.5q0 226 150 392q165 183 417 183zM671 979q-174 0 -299 -129t-125 -312q0 -118 57 -220t154 -157.5t213 -55.5t213 55.5t154 157.5t57 220
q0 183 -125.5 312t-298.5 129z" />
    <glyph glyph-name="pi" unicode="&#x3c0;" horiz-adv-x="1373" 
d="M1323 965h-221v-965h-141v965h-549v-965h-141v965h-221v123h1273v-123z" />
    <glyph glyph-name="rho" unicode="&#x3c1;" horiz-adv-x="1372" 
d="M275 205v-603h-140v909q0 266 162.5 435.5t404.5 169.5q243 0 404.5 -169.5t161.5 -405.5q0 -240 -163 -404.5t-403 -164.5q-268 0 -427 233zM702 979q-178 0 -301 -130t-123 -311q0 -179 120.5 -306t303.5 -127q192 0 308 129t116 304q0 181 -123.5 311t-300.5 130z" />
    <glyph glyph-name="sigma1" unicode="&#x3c2;" horiz-adv-x="1185" 
d="M1131 862l-111 -69q-144 191 -363 191q-177 0 -294.5 -123.5t-117.5 -315.5q0 -163 92 -257.5t325 -138.5q225 -42 309.5 -95t84.5 -186q0 -138 -105.5 -216t-273.5 -78q-87 0 -165 20l36 126q63 -16 119 -16q247 0 247 158q0 59 -54 94t-237 64q-519 83 -519 515
q0 253 160 417t399 164q316 0 468 -254z" />
    <glyph glyph-name="sigma" unicode="&#x3c3;" horiz-adv-x="1468" 
d="M1428 965h-371q180 -175 180 -424q0 -240 -163 -404.5t-403 -164.5q-241 0 -404 164t-163 405q0 235 162 405t405 170q98 0 184 -28h573v-123zM671 979q-175 0 -299.5 -128.5t-124.5 -312.5q0 -179 120.5 -306t303.5 -127q197 0 310.5 132.5t113.5 300.5
q0 181 -123.5 311t-300.5 130z" />
    <glyph glyph-name="tau" unicode="&#x3c4;" horiz-adv-x="823" 
d="M773 965h-291v-965h-141v965h-291v123h723v-123z" />
    <glyph glyph-name="upsilon" unicode="&#x3c5;" horiz-adv-x="1219" 
d="M135 1088h141v-508q0 -163 18 -250.5t103 -154.5t215 -67q177 0 268.5 118t91.5 318q0 273 -254 445l77 128q320 -188 320 -599q0 -240 -136 -393t-367 -153q-214 0 -345.5 125t-131.5 467v524z" />
    <glyph glyph-name="phi" unicode="&#x3c6;" horiz-adv-x="1568" 
d="M854 -26v-372h-141v373q-280 18 -444.5 167.5t-164.5 398.5q0 195 113.5 338t309.5 210l45 -133q-325 -116 -325 -418q0 -386 466 -425v1000q39 3 71 3q315 0 497.5 -153.5t182.5 -421.5q0 -248 -164.5 -398t-445.5 -169zM854 979v-866q466 43 466 425q0 201 -125.5 318
t-340.5 123z" />
    <glyph glyph-name="chi" unicode="&#x3c7;" horiz-adv-x="983" 
d="M944 1088l-377 -700l424 -786h-160l-343 638l-344 -638h-151l419 780l-380 706h158l301 -559l300 559h153z" />
    <glyph glyph-name="psi" unicode="&#x3c8;" horiz-adv-x="1507" 
d="M1372 554q0 -326 -166 -449.5t-382 -130.5v-372h-140v372q-170 10 -288.5 68t-189.5 170t-71 352v524h139v-478q0 -174 26.5 -265.5t125 -156t258.5 -77.5v977h140v-978q165 13 261.5 79.5t121.5 152.5t25 268v478h140v-534z" />
    <glyph glyph-name="omega" unicode="&#x3c9;" horiz-adv-x="1756" 
d="M878 199q-29 -103 -113.5 -165t-196.5 -62q-216 0 -340 139.5t-124 385.5q0 260 167 432.5t428 186.5l11 -135q-212 -16 -337.5 -150t-125.5 -339q0 -187 82.5 -289.5t227.5 -102.5q116 0 183 100t67 288v134h142v-134q0 -188 67 -288t183 -100q140 0 225 100t85 292
q0 208 -125.5 341t-337.5 148l11 135q260 -13 427.5 -186.5t167.5 -432.5q0 -246 -124 -385.5t-340 -139.5q-112 0 -196.5 62t-113.5 165z" />
    <glyph glyph-name="iotadieresis" unicode="&#x3ca;" horiz-adv-x="410" 
d="M135 1088h141v-1088h-141v1088zM1 1518q48 0 82 -34t34 -82t-34 -82t-82 -34t-82 34t-34 82t34 82t82 34zM409 1518q48 0 82 -34t34 -82t-34 -82t-82 -34t-82 34t-34 82t34 82t82 34z" />
    <glyph glyph-name="upsilondieresis" unicode="&#x3cb;" horiz-adv-x="1219" 
d="M135 1088h141v-508q0 -163 18 -250.5t103 -154.5t215 -67q177 0 268.5 118t91.5 318q0 273 -254 445l77 128q320 -188 320 -599q0 -240 -136 -393t-367 -153q-214 0 -345.5 125t-131.5 467v524zM406 1518q48 0 82 -34t34 -82t-34 -82t-82 -34t-82 34t-34 82t34 82t82 34z
M814 1518q48 0 82 -34t34 -82t-34 -82t-82 -34t-82 34t-34 82t34 82t82 34z" />
    <glyph glyph-name="omicrontonos" unicode="&#x3cc;" horiz-adv-x="1341" 
d="M671 1116q251 0 416 -182q150 -166 150 -393q0 -228 -158.5 -398.5t-407.5 -170.5q-250 0 -408.5 170.5t-158.5 398.5q0 226 150 392q165 183 417 183zM671 979q-174 0 -299 -129t-125 -312q0 -118 57 -220t154 -157.5t213 -55.5t213 55.5t154 157.5t57 220
q0 183 -125.5 312t-298.5 129zM758 1598l-28 -338h-118l-29 338h175z" />
    <glyph glyph-name="upsilontonos" unicode="&#x3cd;" horiz-adv-x="1219" 
d="M135 1088h141v-508q0 -163 18 -250.5t103 -154.5t215 -67q177 0 268.5 118t91.5 318q0 273 -254 445l77 128q320 -188 320 -599q0 -240 -136 -393t-367 -153q-214 0 -345.5 125t-131.5 467v524zM697 1598l-28 -338h-118l-29 338h175z" />
    <glyph glyph-name="omegatonos" unicode="&#x3ce;" horiz-adv-x="1756" 
d="M878 199q-29 -103 -113.5 -165t-196.5 -62q-216 0 -340 139.5t-124 385.5q0 260 167 432.5t428 186.5l11 -135q-212 -16 -337.5 -150t-125.5 -339q0 -187 82.5 -289.5t227.5 -102.5q116 0 183 100t67 288v134h142v-134q0 -188 67 -288t183 -100q140 0 225 100t85 292
q0 208 -125.5 341t-337.5 148l11 135q260 -13 427.5 -186.5t167.5 -432.5q0 -246 -124 -385.5t-340 -139.5q-112 0 -196.5 62t-113.5 165zM965 1598l-28 -338h-118l-29 338h175z" />
    <glyph glyph-name="uni0401" unicode="&#x401;" horiz-adv-x="1098" 
d="M180 1471h843v-145h-696v-460h690v-144h-690v-577h690v-145h-837v1471zM406 1816q48 0 82 -34t34 -82t-34 -82t-82 -34t-82 34t-34 82t34 82t82 34zM814 1816q48 0 82 -34t34 -82t-34 -82t-82 -34t-82 34t-34 82t34 82t82 34z" />
    <glyph glyph-name="uni0402" unicode="&#x402;" horiz-adv-x="1374" 
d="M511 1328v-474h135q236 0 354 -35.5t188.5 -146.5t70.5 -278q0 -205 -89.5 -316.5t-255.5 -111.5q-145 0 -244 98l91 102q65 -61 141 -61q98 0 151.5 77.5t53.5 211.5t-44 201.5t-125 91.5t-248 24h-179v-711h-150v1328h-329v143h807v-143h-328z" />
    <glyph glyph-name="uni0403" unicode="&#x403;" horiz-adv-x="946" 
d="M323 0h-146v1471h737v-145h-591v-1326zM709 1895h215l-295 -308h-138z" />
    <glyph glyph-name="uni0404" unicode="&#x404;" horiz-adv-x="1665" 
d="M277 669h695v145h-689q19 252 208.5 400.5t419.5 148.5q332 0 526 -254l117 89q-100 144 -269.5 227t-375.5 83q-338 0 -565.5 -220t-227.5 -544q0 -327 215.5 -554t579.5 -227q412 0 643 293l-117 88q-206 -242 -516 -242q-237 0 -420.5 138.5t-223.5 428.5z" />
    <glyph glyph-name="uni0405" unicode="&#x405;" horiz-adv-x="1020" 
d="M27 274l125 75q132 -243 305 -243q74 0 139 34.5t99 92.5t34 123q0 74 -50 145q-69 98 -252 236q-184 139 -229 201q-78 104 -78 225q0 96 46 175t129.5 124.5t181.5 45.5q104 0 194.5 -51.5t191.5 -189.5l-120 -91q-83 110 -141.5 145t-127.5 35q-89 0 -145.5 -54
t-56.5 -133q0 -48 20 -93t73 -98q29 -28 190 -147q191 -141 262 -251t71 -221q0 -160 -121.5 -278t-295.5 -118q-134 0 -243 71.5t-201 239.5z" />
    <glyph glyph-name="uni0406" unicode="&#x406;" horiz-adv-x="463" 
d="M158 1471h147v-1471h-147v1471z" />
    <glyph glyph-name="uni0407" unicode="&#x407;" horiz-adv-x="463" 
d="M158 1471h147v-1471h-147v1471zM28 1816q48 0 82 -34t34 -82t-34 -82t-82 -34t-82 34t-34 82t34 82t82 34zM436 1816q48 0 82 -34t34 -82t-34 -82t-82 -34t-82 34t-34 82t34 82t82 34z" />
    <glyph glyph-name="uni0408" unicode="&#x408;" horiz-adv-x="987" 
d="M660 1471h148v-993q0 -229 -35.5 -318.5t-118.5 -143t-201 -53.5q-89 0 -175.5 34.5t-191.5 121.5l78 117q115 -81 191 -114q50 -22 98 -22q63 0 114.5 38t72 101t20.5 244v988z" />
    <glyph glyph-name="uni0409" unicode="&#x409;" horiz-adv-x="2181" 
d="M780 1471l307 -631h335q238 0 368.5 -36.5t203.5 -137t73 -248.5q0 -152 -75.5 -253t-193 -133t-332.5 -32h-158l-546 1159l-551 -1159h-162l695 1471h36zM1400 142h73q185 0 265.5 21t126 88.5t45.5 165.5q0 102 -48.5 170t-130 88.5t-290.5 20.5h-301z" />
    <glyph glyph-name="uni040A" unicode="&#x40a;" horiz-adv-x="2136" 
d="M325 855h748v616h148v-616h105q213 0 318.5 -10t194 -58t136 -136t47.5 -211q0 -169 -71.5 -271t-189.5 -135.5t-395 -33.5h-293v711h-748v-711h-148v1471h148v-616zM1221 142h156q212 0 300 16.5t138.5 84.5t50.5 188q0 111 -53 178.5t-139 84.5t-329 17h-124v-569z" />
    <glyph glyph-name="uni040B" unicode="&#x40b;" horiz-adv-x="1391" 
d="M512 0h-150v1328h-329v143h807v-143h-328v-474h307q164 0 260 -45.5t138.5 -138.5t42.5 -301v-369h-150v377q0 157 -25 216.5t-87 88.5t-175 29h-311v-711z" />
    <glyph glyph-name="uni040C" unicode="&#x40c;" horiz-adv-x="1210" 
d="M179 1471h150v-552l587 552h199l-707 -660l762 -811h-195l-646 686v-686h-150v1471zM772 1895h215l-295 -308h-138z" />
    <glyph glyph-name="uni040E" unicode="&#x40e;" horiz-adv-x="1323" 
d="M67 1467h166l445 -999l407 1003h161l-558 -1322q-78 -186 -277 -186q-80 0 -151 32.5t-180 153.5l107 88q111 -109 148 -124t75 -15q58 0 100.5 31t93.5 155zM307 1823h132q34 -52 91 -78t136 -26q80 0 129 23t93 81h128q-22 -90 -112.5 -150.5t-238.5 -60.5
q-147 0 -240 59.5t-118 151.5z" />
    <glyph glyph-name="uni040F" unicode="&#x40f;" horiz-adv-x="1329" 
d="M598 0h-421v1471h148v-1332h679v1332h148v-1471h-417v-220h-137v220z" />
    <glyph glyph-name="uni0410" unicode="&#x410;" horiz-adv-x="1515" 
d="M780 1471l686 -1471h-158l-231 484h-634l-230 -484h-164l695 1471h36zM762 1159l-253 -533h503z" />
    <glyph glyph-name="uni0411" unicode="&#x411;" horiz-adv-x="1173" 
d="M178 0v1471h737v-145h-592v-470h69q275 0 399.5 -48.5t196 -153t71.5 -232.5q0 -168 -126 -295t-351 -127h-404zM323 708v-564h181q161 0 236 31.5t119.5 97t44.5 146.5q0 102 -63 173t-157 93.5t-279 22.5h-82z" />
    <glyph glyph-name="uni0412" unicode="&#x412;" horiz-adv-x="1176" 
d="M183 1471h290q175 0 269 -41.5t148.5 -127.5t54.5 -191q0 -98 -48 -178.5t-141 -130.5q115 -39 177 -91.5t96.5 -127t34.5 -161.5q0 -177 -129.5 -299.5t-347.5 -122.5h-404v1471zM327 1327v-471h84q153 0 225 28.5t114 90t42 136.5q0 101 -70.5 158.5t-224.5 57.5h-170z
M327 708v-564h182q161 0 236 31.5t120.5 98.5t45.5 145q0 98 -64 171t-176 100q-75 18 -261 18h-83z" />
    <glyph glyph-name="uni0413" unicode="&#x413;" horiz-adv-x="946" 
d="M323 0h-146v1471h737v-145h-591v-1326z" />
    <glyph glyph-name="uni0414" unicode="&#x414;" horiz-adv-x="1532" 
d="M175 -220h-145v357h120l577 1334h51l609 -1334h115v-357h-145v220h-1182v-220zM316 137h897l-460 1030z" />
    <glyph glyph-name="uni0415" unicode="&#x415;" horiz-adv-x="1098" 
d="M180 1471h843v-145h-696v-460h690v-144h-690v-577h690v-145h-837v1471z" />
    <glyph glyph-name="uni0416" unicode="&#x416;" horiz-adv-x="1915" 
d="M1031 683v-683h-149v683l-45 41l-602 -724h-195l702 815l-646 656h198l588 -622v622h149v-622l589 622h199l-646 -656l701 -815h-195l-603 724z" />
    <glyph glyph-name="uni0417" unicode="&#x417;" horiz-adv-x="1190" 
d="M209 1328q155 180 383 180q181 0 299 -104.5t118 -270.5q0 -235 -221 -337q291 -90 291 -390q0 -200 -130 -322t-356 -122q-158 0 -274.5 65.5t-219.5 229.5l114 67q102 -150 191 -192.5t185 -42.5q140 0 238 81t98 238q0 83 -33.5 144.5t-94.5 99.5t-116 48t-181 10h-25
v129h49q327 0 327 265q0 123 -74.5 195.5t-188.5 72.5q-148 0 -278 -134z" />
    <glyph glyph-name="uni0418" unicode="&#x418;" horiz-adv-x="1515" 
d="M1335 0h-153v1127l-969 -1127h-33v1471h147v-1147l975 1147h33v-1471z" />
    <glyph glyph-name="uni0419" unicode="&#x419;" horiz-adv-x="1515" 
d="M1335 0h-153v1127l-969 -1127h-33v1471h147v-1147l975 1147h33v-1471zM403 1823h132q34 -52 91 -78t136 -26q80 0 129 23t93 81h128q-22 -90 -112.5 -150.5t-238.5 -60.5q-147 0 -240 59.5t-118 151.5z" />
    <glyph glyph-name="uni041A" unicode="&#x41a;" horiz-adv-x="1210" 
d="M179 1471h150v-552l587 552h199l-707 -660l762 -811h-195l-646 686v-686h-150v1471z" />
    <glyph glyph-name="uni041B" unicode="&#x41b;" horiz-adv-x="1438" 
d="M1370 0h-160l-487 1137l-496 -1137h-160l640 1471h32z" />
    <glyph glyph-name="uni041C" unicode="&#x41c;" horiz-adv-x="1882" 
d="M112 0l209 1471h24l598 -1207l592 1207h24l211 -1471h-145l-144 1052l-520 -1052h-37l-527 1060l-143 -1060h-142z" />
    <glyph glyph-name="uni041D" unicode="&#x41d;" horiz-adv-x="1399" 
d="M177 1471h148v-617h748v617h148v-1471h-148v710h-748v-710h-148v1471z" />
    <glyph glyph-name="uni041E" unicode="&#x41e;" horiz-adv-x="1780" 
d="M880 1508q334 0 559 -223t225 -549q0 -323 -224.5 -548t-547.5 -225q-327 0 -552 224t-225 542q0 212 102.5 393t279.5 283.5t383 102.5zM887 1364q-163 0 -309 -85t-228 -229t-82 -321q0 -262 181.5 -442.5t437.5 -180.5q171 0 316.5 83t227 227t81.5 320
q0 175 -81.5 316.5t-229.5 226.5t-314 85z" />
    <glyph glyph-name="uni041F" unicode="&#x41f;" horiz-adv-x="1399" 
d="M177 1471h1044v-1471h-148v1331h-748v-1331h-148v1471z" />
    <glyph glyph-name="uni0420" unicode="&#x420;" horiz-adv-x="1212" 
d="M178 1471h293q252 0 340 -22q126 -31 206 -127.5t80 -242.5q0 -147 -78 -242.5t-215 -128.5q-100 -24 -374 -24h-105v-684h-147v1471zM325 1328v-500l249 -3q151 0 221 27.5t110 89t40 137.5q0 74 -40 135.5t-105.5 87.5t-214.5 26h-260z" />
    <glyph glyph-name="uni0421" unicode="&#x421;" horiz-adv-x="1665" 
d="M1549 1198l-116 -89q-96 125 -230.5 189.5t-295.5 64.5q-176 0 -326 -84.5t-232.5 -227t-82.5 -320.5q0 -269 184.5 -449t465.5 -180q309 0 517 242l116 -88q-110 -140 -274.5 -216.5t-367.5 -76.5q-386 0 -609 257q-187 217 -187 524q0 323 226.5 543.5t567.5 220.5
q206 0 372 -81.5t272 -228.5z" />
    <glyph glyph-name="uni0422" unicode="&#x422;" horiz-adv-x="872" 
d="M33 1328v143h807v-143h-328v-1328h-150v1328h-329z" />
    <glyph glyph-name="uni0423" unicode="&#x423;" horiz-adv-x="1323" 
d="M67 1467h166l445 -999l407 1003h161l-558 -1322q-78 -186 -277 -186q-80 0 -151 32.5t-180 153.5l107 88q111 -109 148 -124t75 -15q58 0 100.5 31t93.5 155z" />
    <glyph glyph-name="uni0424" unicode="&#x424;" horiz-adv-x="1784" 
d="M818 1471h147v-188h113q332 0 461 -129.5t129 -310.5q0 -165 -113.5 -293.5t-430.5 -128.5h-159v-421h-147v421h-158q-168 0 -278 32.5t-188.5 139t-78.5 250.5q0 180 128 310t463 130h112v188zM965 1141v-578h155l79 -1q154 0 235.5 80.5t81.5 202.5q0 135 -96 215.5
t-290 80.5h-165zM818 1141h-165q-181 0 -283.5 -76.5t-102.5 -218.5q0 -122 81 -203t242 -81l74 1h154v578z" />
    <glyph glyph-name="uni0425" unicode="&#x425;" horiz-adv-x="1247" 
d="M101 1471h172l352 -574l355 574h170l-438 -713l467 -758h-172l-382 617l-384 -617h-172l469 758z" />
    <glyph glyph-name="uni0426" unicode="&#x426;" horiz-adv-x="1450" 
d="M1268 0h-1090v1471h148v-1333h679v1333h148v-1333h252v-358h-137v220z" />
    <glyph glyph-name="uni0427" unicode="&#x427;" horiz-adv-x="1104" 
d="M780 836v635h147v-1471h-147v693h-106q-220 0 -321.5 18t-181.5 78.5t-109.5 148t-29.5 241.5v292h144v-301q0 -185 74.5 -259.5t248.5 -74.5l104 1l45 -1h132z" />
    <glyph glyph-name="uni0428" unicode="&#x428;" horiz-adv-x="2064" 
d="M325 139h628v1332h148v-1332h638v1332h148v-1471h-1710v1471h148v-1332z" />
    <glyph glyph-name="uni0429" unicode="&#x429;" horiz-adv-x="2183" 
d="M1887 139h252v-359h-138v220h-1824v1471h148v-1332h628v1332h148v-1332h638v1332h148v-1332zM2064 400z" />
    <glyph glyph-name="uni042A" unicode="&#x42a;" horiz-adv-x="1401" 
d="M338 1333h-306v138h453v-631h105q290 0 416 -28t203 -128.5t77 -259.5q0 -157 -75 -259t-191.5 -133.5t-388.5 -31.5h-293v1333zM485 142h157q248 0 323.5 23.5t120 87.5t44.5 164q0 110 -56 179t-142.5 84.5t-322.5 15.5h-124v-554z" />
    <glyph glyph-name="uni042B" unicode="&#x42b;" horiz-adv-x="1624" 
d="M178 1471h147v-631h106q289 0 415 -28t203 -128.5t77 -259.5q0 -156 -75 -258.5t-191 -134t-389 -31.5h-293v1471zM325 142h157q248 0 323.5 23.5t120 87.5t44.5 164q0 110 -56 179t-142.5 84.5t-322.5 15.5h-124v-554zM1299 1471h147v-1471h-147v1471z" />
    <glyph glyph-name="uni042C" unicode="&#x42c;" horiz-adv-x="1241" 
d="M178 1471h147v-631h106q289 0 415 -28t203 -128.5t77 -259.5q0 -156 -75 -258.5t-191 -134t-389 -31.5h-293v1471zM325 142h157q248 0 323.5 23.5t120 87.5t44.5 164q0 110 -56 179t-142.5 84.5t-322.5 15.5h-124v-554z" />
    <glyph glyph-name="uni042D" unicode="&#x42d;" horiz-adv-x="1665" 
d="M1388 669h-695v145h689q-19 252 -208.5 400.5t-419.5 148.5q-332 0 -526 -254l-117 89q100 144 269.5 227t375.5 83q338 0 565.5 -220t227.5 -544q0 -327 -215.5 -554t-579.5 -227q-412 0 -643 293l117 88q206 -242 516 -242q237 0 420.5 138.5t223.5 428.5z" />
    <glyph glyph-name="uni042E" unicode="&#x42e;" horiz-adv-x="2243" 
d="M324 814h258q56 354 280.5 524t480.5 170q333 0 559 -223t226 -549q0 -322 -224 -547.5t-549 -225.5q-298 0 -519 191.5t-254 522.5h-258v-677h-147v1471h147v-657zM1976 736q0 273 -188.5 451t-436.5 178q-247 0 -433 -180.5t-186 -455.5q0 -268 184.5 -445.5
t434.5 -177.5q259 0 442 179t183 451z" />
    <glyph glyph-name="uni042F" unicode="&#x42f;" horiz-adv-x="1196" 
d="M1013 1471h-293q-245 0 -332 -20q-131 -30 -213 -128.5t-82 -242.5q0 -120 56.5 -211t161.5 -137.5t290 -47.5l-529 -684h182l528 684h84v-684h147v1471zM866 1327v-500l-253 -2q-147 0 -217.5 28t-110 89.5t-39.5 137.5q0 74 40 134.5t105 86.5t216 26h259z" />
    <glyph glyph-name="uni0430" unicode="&#x430;" horiz-adv-x="1399" 
d="M1240 1088v-1088h-138v187q-88 -107 -197.5 -161t-239.5 -54q-231 0 -394.5 167.5t-163.5 407.5q0 235 165 402t397 167q134 0 242.5 -57t190.5 -171v200h138zM680 981q-117 0 -216 -57.5t-157.5 -161.5t-58.5 -220q0 -115 59 -220t158.5 -163.5t213.5 -58.5
q115 0 218 58t158.5 157t55.5 223q0 189 -124.5 316t-306.5 127z" />
    <glyph glyph-name="uni0431" unicode="&#x431;" horiz-adv-x="1370" 
d="M1197 1531v-134q-100 -17 -343 -24q-176 -6 -271.5 -23.5t-166.5 -67t-119.5 -150t-60.5 -224.5l-14 -153q57 187 187.5 274t289.5 87q242 0 404.5 -170t162.5 -405q0 -233 -162 -401t-405 -168q-249 0 -422 186t-173 586q0 279 63.5 422.5t145.5 206.5t212 99t487 45
q110 3 185 14zM1124 538q0 181 -126 311t-299 130q-172 0 -298 -130t-126 -311q0 -180 121.5 -306.5t302.5 -126.5q182 0 303.5 126.5t121.5 306.5z" />
    <glyph glyph-name="uni0432" unicode="&#x432;" horiz-adv-x="958" 
d="M472 0h-316v1088h311q178 0 256.5 -82t78.5 -192q0 -166 -146 -225q212 -75 212 -289q0 -300 -396 -300zM297 967v-340h91q124 0 162 10t71.5 49.5t33.5 104.5q0 68 -35 114t-73.5 54t-158.5 8h-91zM297 499v-381h150q106 0 151.5 13.5t78 58.5t32.5 114q0 89 -56 142
t-148 53h-208z" />
    <glyph glyph-name="uni0433" unicode="&#x433;" horiz-adv-x="739" 
d="M295 965v-965h-139v1088h550v-123h-411z" />
    <glyph glyph-name="uni0434" unicode="&#x434;" horiz-adv-x="1239" 
d="M165 119l420 969h73l417 -969h131v-258h-135v139h-900v-145h-138v264h132zM619 872l-318 -753h623z" />
    <glyph glyph-name="uni0435" unicode="&#x435;" horiz-adv-x="1331" 
d="M1072 361l118 -62q-58 -114 -134 -184t-171 -106.5t-215 -36.5q-266 0 -416 174.5t-150 394.5q0 207 127 369q161 206 431 206q278 0 444 -211q118 -149 120 -372h-978q4 -190 121 -311.5t289 -121.5q83 0 161.5 29t133.5 77t119 155zM1072 654q-28 112 -81.5 179
t-141.5 108t-185 41q-160 0 -275 -103q-84 -75 -127 -225h810z" />
    <glyph glyph-name="uni0436" unicode="&#x436;" horiz-adv-x="1575" 
d="M714 1088h142v-481l520 481h171l-514 -485l553 -603h-179l-471 526l-80 -67v-459h-142v459l-78 67l-469 -526h-179l547 603l-506 485h171l514 -481v481z" />
    <glyph glyph-name="uni0437" unicode="&#x437;" horiz-adv-x="866" 
d="M338 630h73q70 0 128.5 46t58.5 132q0 73 -47 125.5t-144 52.5q-113 0 -227 -88l-79 97q147 123 312 123q136 0 228 -81t92 -209q0 -170 -150 -231q196 -82 196 -287q0 -130 -91.5 -234.5t-273.5 -104.5q-223 0 -359 145l88 100q101 -114 259 -114q106 0 166.5 57
t60.5 150q0 91 -61 146t-144 55h-86v120z" />
    <glyph glyph-name="uni0438" unicode="&#x438;" horiz-adv-x="1262" 
d="M296 1088v-805l799 805h11v-1088h-140v798l-793 -798h-17v1088h140z" />
    <glyph glyph-name="uni0439" unicode="&#x439;" horiz-adv-x="1262" 
d="M296 1088v-805l799 805h11v-1088h-140v798l-793 -798h-17v1088h140zM277 1525h132q34 -52 91 -78t136 -26q80 0 129 23t93 81h128q-22 -90 -112.5 -150.5t-238.5 -60.5q-147 0 -240 59.5t-118 151.5z" />
    <glyph glyph-name="uni043A" unicode="&#x43a;" horiz-adv-x="1028" 
d="M156 1088h141v-458l503 458h195l-551 -498l595 -590h-198l-500 503l-44 -39v-464h-141v1088z" />
    <glyph glyph-name="uni043B" unicode="&#x43b;" horiz-adv-x="1135" 
d="M1077 0h-149l-364 792l-361 -792h-150l498 1088h25z" />
    <glyph glyph-name="uni043C" unicode="&#x43c;" horiz-adv-x="1800" 
d="M1337 1088h40l369 -1088h-146l-269 801l-418 -801h-26l-419 801l-268 -801h-146l371 1088h38l438 -851z" />
    <glyph glyph-name="uni043D" unicode="&#x43d;" horiz-adv-x="1225" 
d="M929 524h-632v-524h-141v1088h141v-432h632v432h140v-1088h-140v524z" />
    <glyph glyph-name="uni043E" unicode="&#x43e;" horiz-adv-x="1341" 
d="M671 1116q251 0 416 -182q150 -166 150 -393q0 -228 -158.5 -398.5t-407.5 -170.5q-250 0 -408.5 170.5t-158.5 398.5q0 226 150 392q165 183 417 183zM671 979q-174 0 -299 -129t-125 -312q0 -118 57 -220t154 -157.5t213 -55.5t213 55.5t154 157.5t57 220
q0 183 -125.5 312t-298.5 129z" />
    <glyph glyph-name="uni043F" unicode="&#x43f;" horiz-adv-x="1225" 
d="M156 1088h913v-1088h-140v956h-633v-956h-140v1088z" />
    <glyph glyph-name="uni0440" unicode="&#x440;" horiz-adv-x="1397" 
d="M158 1088h139v-200q83 114 191 171t241 57q232 0 397 -167t165 -402q0 -240 -163.5 -407.5t-394.5 -167.5q-130 0 -239 54t-197 161v-585h-139v1486zM718 981q-182 0 -306.5 -127t-124.5 -316q0 -124 55.5 -223t159 -157t218.5 -58q113 0 212.5 58.5t158.5 163.5t59 220
q0 116 -58.5 220t-157.5 161.5t-216 57.5z" />
    <glyph glyph-name="uni0441" unicode="&#x441;" horiz-adv-x="1325" 
d="M1212 862l-111 -69q-144 191 -393 191q-199 0 -330.5 -128t-131.5 -311q0 -119 60.5 -224t166 -163t236.5 -58q240 0 392 191l111 -73q-78 -117 -209.5 -181.5t-299.5 -64.5q-258 0 -428 164t-170 399q0 158 79.5 293.5t218.5 211.5t311 76q108 0 208.5 -33t170.5 -86
t119 -135z" />
    <glyph glyph-name="uni0442" unicode="&#x442;" horiz-adv-x="784" 
d="M34 1088h716v-121h-288v-967h-141v967h-287v121z" />
    <glyph glyph-name="uni0443" unicode="&#x443;" horiz-adv-x="1098" 
d="M39 1088h148l374 -838l363 838h149l-649 -1486h-148l210 480z" />
    <glyph glyph-name="uni0444" unicode="&#x444;" horiz-adv-x="2216" 
d="M1039 1508h139v-584q131 186 377 186q237 0 397.5 -161t160.5 -413q0 -249 -162 -409t-392 -160q-252 0 -381 196v-561h-139v561q-127 -197 -384 -197q-226 0 -388.5 160t-162.5 410q0 252 160.5 413t397.5 161q251 0 377 -186v584zM1174 518q0 -195 111 -306t255 -111
q196 0 314 130t118 313q0 189 -124.5 314t-298.5 125q-157 0 -266 -111.5t-109 -353.5zM245 543q0 -182 117.5 -312t314.5 -130q68 0 146 34.5t125.5 87t71.5 121.5t24 202q0 212 -110 324.5t-266 112.5q-175 0 -299 -125t-124 -315z" />
    <glyph glyph-name="uni0445" unicode="&#x445;" horiz-adv-x="983" 
d="M32 1088h168l288 -403l288 403h168l-372 -517l419 -571h-170l-333 457l-328 -457h-167l412 571z" />
    <glyph glyph-name="uni0446" unicode="&#x446;" horiz-adv-x="1337" 
d="M1173 0h-1017v1088h141v-956h632v956h141v-956h235v-304h-132v172z" />
    <glyph glyph-name="uni0447" unicode="&#x447;" horiz-adv-x="938" 
d="M643 491h-246q-167 0 -247.5 86t-80.5 239v272h137v-197q0 -190 54 -235.5t178 -45.5h205v478h139v-1088h-139v491z" />
    <glyph glyph-name="uni0448" unicode="&#x448;" horiz-adv-x="1937" 
d="M1782 0h-1626v1088h141v-956h599v956h143v-956h600v956h143v-1088z" />
    <glyph glyph-name="uni0449" unicode="&#x449;" horiz-adv-x="2050" 
d="M1885 0h-1729v1088h141v-956h600v956h142v-956h600v956h143v-956h236v-304h-133v172zM1937 300z" />
    <glyph glyph-name="uni044A" unicode="&#x44a;" horiz-adv-x="1063" 
d="M393 657h134q159 0 249 -25t155 -110.5t65 -196.5q0 -134 -94.5 -229.5t-284.5 -95.5h-362v960h-200v128h338v-431zM393 539v-421h161q288 0 288 208q0 71 -38.5 124.5t-101 71t-190.5 17.5h-119z" />
    <glyph glyph-name="uni044B" unicode="&#x44b;" horiz-adv-x="1374" 
d="M295 657h133q159 0 249 -25t155 -110.5t65 -196.5q0 -134 -94 -229.5t-285 -95.5h-362v1088h139v-431zM300 529v-411h161q284 0 284 200q0 57 -30.5 112t-89 77t-206.5 22h-119zM1090 1088h141v-1088h-141v1088z" />
    <glyph glyph-name="uni044C" unicode="&#x44c;" horiz-adv-x="965" 
d="M295 657h133q159 0 249 -25t155 -110.5t65 -196.5q0 -134 -94 -229.5t-285 -95.5h-362v1088h139v-431zM300 529v-411h161q284 0 284 200q0 57 -30.5 112t-89 77t-206.5 22h-119z" />
    <glyph glyph-name="uni044D" unicode="&#x44d;" horiz-adv-x="1315" 
d="M1068 503q-20 -183 -150 -293t-311 -110q-240 0 -392 191l-111 -73q78 -124 217 -185t292 -61q263 0 430.5 166.5t167.5 396.5q0 243 -172.5 412t-436.5 169q-153 0 -291.5 -66.5t-206.5 -187.5l111 -69q144 191 393 191q174 0 299.5 -101t160.5 -260h-484v-120h484z" />
    <glyph glyph-name="uni044E" unicode="&#x44e;" horiz-adv-x="1712" 
d="M298 0h-141v1088h141v-457h182q37 218 194.5 351.5t366.5 133.5q242 0 404.5 -170t162.5 -405q0 -233 -162 -401t-404 -168q-216 0 -377.5 141.5t-184.5 379.5h-182v-493zM1466 538q0 181 -126 311t-298 130q-173 0 -299 -130t-126 -311q0 -180 120.5 -306.5
t304.5 -126.5q181 0 302.5 126.5t121.5 306.5z" />
    <glyph glyph-name="uni044F" unicode="&#x44f;" horiz-adv-x="911" 
d="M615 487h-100l-310 -487h-151l327 501q-122 15 -198 92.5t-76 192.5q0 144 87.5 223t229.5 79h331v-1088h-140v487zM615 967h-92q-134 0 -180 -17t-73 -58.5t-27 -111.5q0 -67 35 -110.5t78 -53.5t167 -10h92v361z" />
    <glyph glyph-name="uni0451" unicode="&#x451;" horiz-adv-x="1331" 
d="M1072 361l118 -62q-58 -114 -134 -184t-171 -106.5t-215 -36.5q-266 0 -416 174.5t-150 394.5q0 207 127 369q161 206 431 206q278 0 444 -211q118 -149 120 -372h-978q4 -190 121 -311.5t289 -121.5q83 0 161.5 29t133.5 77t119 155zM1072 654q-28 112 -81.5 179
t-141.5 108t-185 41q-160 0 -275 -103q-84 -75 -127 -225h810zM462 1518q48 0 82 -34t34 -82t-34 -82t-82 -34t-82 34t-34 82t34 82t82 34zM870 1518q48 0 82 -34t34 -82t-34 -82t-82 -34t-82 34t-34 82t34 82t82 34z" />
    <glyph glyph-name="uni0452" unicode="&#x452;" horiz-adv-x="1284" 
d="M329 1508v-136h480v-120h-480v-359q170 223 408 223q142 0 241 -78.5t130 -184t31 -293.5v-560l2 -164q0 -262 -186 -262q-73 0 -159 34v126q54 -29 101 -29q49 0 74 32t26.5 73t1.5 190v519q0 189 -20.5 274t-89 139.5t-179.5 54.5q-97 0 -172.5 -44t-126 -118
t-66.5 -153t-16 -273v-399h-139v1252h-155v120h155v136h139z" />
    <glyph glyph-name="uni0453" unicode="&#x453;" horiz-adv-x="739" 
d="M295 965v-965h-139v1088h550v-123h-411zM523 1598h215l-295 -308h-138z" />
    <glyph glyph-name="uni0454" unicode="&#x454;" horiz-adv-x="1315" 
d="M247 503q20 -183 150 -293t311 -110q240 0 392 191l111 -73q-78 -124 -217 -185t-292 -61q-263 0 -430.5 166.5t-167.5 396.5q0 243 172.5 412t436.5 169q153 0 291.5 -66.5t206.5 -187.5l-111 -69q-144 191 -393 191q-174 0 -299.5 -101t-160.5 -260h484v-120h-484z" />
    <glyph glyph-name="uni0455" unicode="&#x455;" horiz-adv-x="795" 
d="M703 969l-90 -93q-112 109 -219 109q-68 0 -116.5 -45t-48.5 -105q0 -53 40 -101q40 -49 168 -115q156 -81 212 -156q55 -76 55 -171q0 -134 -94 -227t-235 -93q-94 0 -179.5 41t-141.5 113l88 100q107 -121 227 -121q84 0 143 54t59 127q0 60 -39 107q-39 46 -176 116
q-147 76 -200 150t-53 169q0 124 84.5 206t213.5 82q150 0 302 -147z" />
    <glyph glyph-name="uni0456" unicode="&#x456;" horiz-adv-x="410" 
d="M205 1536q48 0 82 -34t34 -82q0 -47 -34 -81t-82 -34q-47 0 -81 34t-34 81q0 48 34 82t81 34zM135 1088h141v-1088h-141v1088z" />
    <glyph glyph-name="uni0457" unicode="&#x457;" horiz-adv-x="410" 
d="M135 1088h141v-1088h-141v1088zM1 1518q48 0 82 -34t34 -82t-34 -82t-82 -34t-82 34t-34 82t34 82t82 34zM409 1518q48 0 82 -34t34 -82t-34 -82t-82 -34t-82 34t-34 82t34 82t82 34z" />
    <glyph glyph-name="uni0458" unicode="&#x458;" horiz-adv-x="416" 
d="M208 1536q48 0 81.5 -34t33.5 -82q0 -47 -33.5 -81t-81.5 -34t-81.5 34t-33.5 81q0 48 33.5 82t81.5 34zM139 1088h142v-1252q0 -137 -49.5 -199.5t-135.5 -62.5q-71 0 -160 34v126q56 -29 101 -29q57 0 85 47q17 30 17 125v1211z" />
    <glyph glyph-name="uni0459" unicode="&#x459;" horiz-adv-x="1622" 
d="M577 1088l200 -431h310q160 0 250.5 -25.5t154.5 -111.5t64 -197q0 -105 -70 -200.5t-242 -122.5h-315l-369 828l-366 -828h-140l498 1088h25zM833 529l185 -411h102q284 0 284 200q0 71 -37.5 123.5t-97 70t-191.5 17.5h-245zM1072 0z" />
    <glyph glyph-name="uni045A" unicode="&#x45a;" horiz-adv-x="1733" 
d="M1069 656h128q158 0 248.5 -25.5t155 -111t64.5 -195.5q0 -133 -94 -228.5t-284 -95.5h-358v524h-631v-524h-142v1088h142v-432h631v432h140v-432zM1069 524v-406h160q284 0 284 197q0 56 -30.5 110.5t-89.5 76.5t-206 22h-118z" />
    <glyph glyph-name="uni045B" unicode="&#x45b;" horiz-adv-x="1284" 
d="M191 1252h-155v120h155v136h139v-136h480v-120h-480v-359q170 223 408 223q142 0 241 -78.5t130 -184t31 -293.5v-560h-140v519q0 189 -20.5 274t-89 139.5t-179.5 54.5q-97 0 -172.5 -44t-126 -118t-66.5 -153t-16 -273v-399h-139v1252z" />
    <glyph glyph-name="uni045C" unicode="&#x45c;" horiz-adv-x="1028" 
d="M156 1088h141v-458l503 458h195l-551 -498l595 -590h-198l-500 503l-44 -39v-464h-141v1088zM651 1598h215l-295 -308h-138z" />
    <glyph glyph-name="uni045E" unicode="&#x45e;" horiz-adv-x="1098" 
d="M39 1088h148l374 -838l363 838h149l-649 -1486h-148l210 480zM194 1525h132q34 -52 91 -78t136 -26q80 0 129 23t93 81h128q-22 -90 -112.5 -150.5t-238.5 -60.5q-147 0 -240 59.5t-118 151.5z" />
    <glyph glyph-name="uni045F" unicode="&#x45f;" horiz-adv-x="1227" 
d="M541 0h-384v1088h141v-956h632v956h141v-1088h-398v-172h-132v172z" />
    <glyph glyph-name="uni0490" unicode="&#x490;" horiz-adv-x="829" 
d="M323 0h-146v1471h475v214h145v-359h-474v-1326z" />
    <glyph glyph-name="uni0491" unicode="&#x491;" horiz-adv-x="729" 
d="M295 965v-965h-139v1088h382v135h137v-258h-380z" />
    <glyph glyph-name="Wgrave" unicode="&#x1e80;" horiz-adv-x="1966" 
d="M96 1471h151l299 -1060l422 1060h30l417 -1060l305 1060h150l-422 -1471h-28l-436 1113l-445 -1113h-28zM922 1895l218 -308h-138l-295 308h215z" />
    <glyph glyph-name="wgrave" unicode="&#x1e81;" horiz-adv-x="1702" 
d="M9 1088h144l333 -790l349 790h25l348 -790l339 790h146l-472 -1088h-27l-346 779l-349 -779h-26zM790 1598l218 -308h-138l-295 308h215z" />
    <glyph glyph-name="Wacute" unicode="&#x1e82;" horiz-adv-x="1966" 
d="M96 1471h151l299 -1060l422 1060h30l417 -1060l305 1060h150l-422 -1471h-28l-436 1113l-445 -1113h-28zM1051 1895h215l-295 -308h-138z" />
    <glyph glyph-name="wacute" unicode="&#x1e83;" horiz-adv-x="1702" 
d="M9 1088h144l333 -790l349 790h25l348 -790l339 790h146l-472 -1088h-27l-346 779l-349 -779h-26zM919 1598h215l-295 -308h-138z" />
    <glyph glyph-name="Wdieresis" unicode="&#x1e84;" horiz-adv-x="1966" 
d="M96 1471h151l299 -1060l422 1060h30l417 -1060l305 1060h150l-422 -1471h-28l-436 1113l-445 -1113h-28zM780 1816q48 0 82 -34t34 -82t-34 -82t-82 -34t-82 34t-34 82t34 82t82 34zM1188 1816q48 0 82 -34t34 -82t-34 -82t-82 -34t-82 34t-34 82t34 82t82 34z" />
    <glyph glyph-name="wdieresis" unicode="&#x1e85;" horiz-adv-x="1702" 
d="M9 1088h144l333 -790l349 790h25l348 -790l339 790h146l-472 -1088h-27l-346 779l-349 -779h-26zM649 1518q48 0 82 -34t34 -82t-34 -82t-82 -34t-82 34t-34 82t34 82t82 34zM1057 1518q48 0 82 -34t34 -82t-34 -82t-82 -34t-82 34t-34 82t34 82t82 34z" />
    <glyph glyph-name="Ygrave" unicode="&#x1ef2;" horiz-adv-x="1212" 
d="M63 1471h170l376 -606l370 606h170l-466 -768v-703h-145v703zM546 1895l218 -308h-138l-295 308h215z" />
    <glyph glyph-name="ygrave" unicode="&#x1ef3;" horiz-adv-x="1098" 
d="M39 1088h148l374 -838l363 838h149l-649 -1486h-148l210 480zM488 1598l218 -308h-138l-295 308h215z" />
    <glyph glyph-name="uni2015" unicode="&#x2015;" horiz-adv-x="1536" 
d="M-12 637h1560v-129h-1560v129z" />
    <glyph glyph-name="quotereversed" unicode="&#x201b;" horiz-adv-x="719" 
d="M371 959q-53 105 -69 179t-16 198v172h181v-275h-89q8 -107 71 -230z" />
    <glyph glyph-name="uni203E" unicode="&#x203e;" horiz-adv-x="1135" 
d="M-42 1869h1219v-74h-1219v74zM382 1067z" />
    <glyph glyph-name="lira" unicode="&#x20a4;" horiz-adv-x="1135" 
d="M465 965h358v-129h-318l31 -112h287v-129h-259q10 -68 10 -137q0 -125 -22 -195q191 -151 273 -151q98 0 109 232h141q0 -166 -60.5 -273.5t-169.5 -107.5q-152 0 -342 160q-83 -160 -240 -160q-81 0 -143.5 45.5t-62.5 142.5q0 98 67 165t155 67q71 0 144 -39
q7 64 7 108q0 75 -14 143h-317v129h286l-30 112h-256v129h220q-37 128 -37 206q0 146 107 241.5t253 95.5q152 0 244.5 -102.5t102.5 -280.5h-136q-12 249 -206 249q-109 0 -167 -59.5t-58 -143.5q0 -79 43 -206zM385 207q-65 41 -114 41q-34 0 -55.5 -22.5t-21.5 -54.5
t19.5 -53.5t48.5 -21.5q77 0 123 111z" />
    <glyph glyph-name="uni2116" unicode="&#x2116;" horiz-adv-x="2249" 
d="M180 0v1471h32l978 -1126v1126h145v-1471h-33l-970 1112v-1112h-152zM2194 633q0 -142 -101.5 -244t-243.5 -102q-144 0 -245 101.5t-101 244.5t101.5 244.5t244.5 101.5q142 0 243.5 -101.5t101.5 -244.5zM2068 633q0 91 -64 155.5t-155 64.5t-155.5 -64.5t-64.5 -155.5
t64.5 -155t155.5 -64q90 0 154.5 64.5t64.5 154.5zM1503 102h691v-102h-691v102z" />
    <glyph glyph-name="estimated" unicode="&#x212e;" horiz-adv-x="1229" 
d="M321 531v-371q120 -121 298 -121q254 0 395 246l72 -43q-118 -170 -231.5 -223t-235.5 -53q-232 0 -380.5 158.5t-148.5 406.5q0 252 149.5 408.5t379.5 156.5q214 0 366 -142t163 -423h-827zM917 605v297q-124 121 -300 121q-175 0 -296 -122v-296h596z" />
    <glyph glyph-name="oneeighth" unicode="&#x215b;" horiz-adv-x="1702" 
d="M284 -37l923 1545h112l-925 -1545h-110zM225 1489h187v-756h-110v658h-150zM1509 414q146 -68 146 -194q0 -95 -78 -166.5t-217 -71.5q-144 0 -218.5 73t-74.5 159q0 130 151 200q-109 56 -109 160q0 81 75 141t182 60q109 0 179 -61.5t70 -143.5q0 -100 -106 -156z
M1504 574q0 45 -38.5 73.5t-103.5 28.5q-58 0 -100 -29t-42 -75q0 -48 44.5 -81.5t99.5 -33.5q57 0 98.5 34t41.5 83zM1544 219q0 61 -51.5 102.5t-126.5 41.5q-74 0 -130.5 -41t-56.5 -110q0 -67 54 -99.5t129 -32.5q78 0 130 39t52 100z" />
    <glyph glyph-name="threeeighths" unicode="&#x215c;" horiz-adv-x="1702" 
d="M173 1293h-112q54 215 271 215q109 0 185.5 -59t76.5 -145t-91 -145q138 -66 138 -192q0 -102 -85 -177t-222 -75q-255 0 -301 241h109q34 -142 193 -142q90 0 143 44t53 101q0 54 -52.5 98t-201.5 47v94q88 0 145 29t57 79q0 41 -42 72t-104 31q-113 0 -160 -116z
M333 -37l924 1545h111l-924 -1545h-111zM1509 414q146 -68 146 -194q0 -95 -78 -166.5t-217 -71.5q-138 0 -215.5 70.5t-77.5 161.5q0 130 150 200q-108 56 -108 160q0 81 75 141t181 60q109 0 179 -61.5t70 -143.5q0 -100 -105 -156zM1503 574q0 45 -38 73.5t-104 28.5
q-58 0 -99.5 -29t-41.5 -75q0 -48 44.5 -81.5t99.5 -33.5q57 0 98 34t41 83zM1544 219q0 61 -51.5 102.5t-126.5 41.5q-74 0 -131 -41t-57 -110q0 -67 54.5 -99.5t128.5 -32.5q79 0 131 39t52 100z" />
    <glyph glyph-name="fiveeighths" unicode="&#x215d;" horiz-adv-x="1702" 
d="M333 -37l924 1545h111l-924 -1545h-111zM613 1489v-97h-313l-38 -172q43 10 88 10q129 0 207 -72.5t78 -175.5q0 -109 -85 -188t-229 -79q-122 0 -196 63.5t-83 147.5h113q28 -113 170 -113q81 0 139 49.5t58 122.5q0 66 -52 106.5t-140 40.5q-80 0 -201 -30l85 387h399z
M1509 414q145 -68 145 -194q0 -95 -77.5 -166.5t-216.5 -71.5q-145 0 -219 73t-74 159q0 130 150 200q-108 56 -108 160q0 81 75 141t181 60q105 0 177 -60.5t72 -144.5q0 -100 -105 -156zM1503 574q0 45 -38 73.5t-104 28.5q-58 0 -99.5 -29t-41.5 -75q0 -48 44.5 -81.5
t99.5 -33.5q57 0 98 34t41 83zM1544 219q0 61 -51.5 102.5t-126.5 41.5q-74 0 -131 -41t-57 -110q0 -67 54.5 -99.5t128.5 -32.5q79 0 131 39t52 100z" />
    <glyph glyph-name="seveneighths" unicode="&#x215e;" horiz-adv-x="1702" 
d="M259 -37l923 1545h111l-924 -1545h-110zM81 1489h579l-475 -774l-91 40l388 637h-401v97zM1509 414q146 -68 146 -194q0 -95 -78 -166.5t-217 -71.5q-144 0 -218.5 73t-74.5 159q0 130 151 200q-109 56 -109 160q0 81 75 141t182 60q105 0 177 -60.5t72 -144.5
q0 -100 -106 -156zM1504 574q0 45 -38.5 73.5t-103.5 28.5q-58 0 -100 -29t-42 -75q0 -48 44.5 -81.5t99.5 -33.5q57 0 98.5 34t41.5 83zM1544 219q0 61 -52 102.5t-126 41.5t-131 -41t-57 -110q0 -67 54.5 -99.5t129.5 -32.5q78 0 130 39t52 100z" />
    <glyph glyph-name="house" unicode="&#x2302;" horiz-adv-x="1229" 
d="M153 0v634l461 519l462 -519v-634h-923zM234 81h761v519l-381 427l-380 -427v-519z" />
    <glyph glyph-name="revlogicalnot" unicode="&#x2310;" horiz-adv-x="1241" 
d="M115 1024h1012v-137h-875v-440h-137v577z" />
    <glyph glyph-name="integraltp" unicode="&#x2320;" horiz-adv-x="1229" 
d="M687 -515h-145v1811q0 207 86 324t206 117q74 0 106 -34.5t32 -74.5q0 -41 -26.5 -66.5t-61.5 -25.5q-34 0 -55.5 13.5t-42.5 47.5q-24 37 -47 37q-29 0 -40.5 -24.5t-11.5 -153.5v-1971z" />
    <glyph glyph-name="integralbt" unicode="&#x2321;" horiz-adv-x="1229" 
d="M542 1737h145v-1811q0 -207 -86 -324t-206 -117q-59 0 -98.5 28t-39.5 81q0 41 26.5 66.5t60.5 25.5q35 0 56.5 -14t42.5 -47q24 -37 47 -37q29 0 40.5 24t11.5 154v1971z" />
    <glyph glyph-name="SF100000" unicode="&#x2500;" 
d="M1478 534h-1496v175h1496v-175z" />
    <glyph glyph-name="SF110000" unicode="&#x2502;" 
d="M643 -621v2485h175v-2485h-175z" />
    <glyph glyph-name="SF010000" unicode="&#x250c;" 
d="M1479 709v-175h-661v-1155h-175v1330h836z" />
    <glyph glyph-name="SF030000" unicode="&#x2510;" 
d="M642 534h-660v175h835v-1330h-175v1155z" />
    <glyph glyph-name="SF020000" unicode="&#x2514;" 
d="M643 534v1330h175v-1155h661v-175h-836z" />
    <glyph glyph-name="SF040000" unicode="&#x2518;" 
d="M817 534h-835v175h660v1155h175v-1330z" />
    <glyph glyph-name="SF080000" unicode="&#x251c;" 
d="M643 -621v2485h175v-1155h661v-175h-661v-1155h-175z" />
    <glyph glyph-name="SF090000" unicode="&#x2524;" 
d="M642 -621v1155h-660v175h660v1155h175v-2485h-175z" />
    <glyph glyph-name="SF060000" unicode="&#x252c;" 
d="M642 534h-660v175h1496v-175h-661v-1155h-175v1155z" />
    <glyph glyph-name="SF070000" unicode="&#x2534;" 
d="M1478 534h-1496v175h660v1155h175v-1155h661v-175z" />
    <glyph glyph-name="SF050000" unicode="&#x253c;" 
d="M642 534h-660v175h660v1155h175v-1155h661v-175h-661v-1155h-175v1155z" />
    <glyph glyph-name="SF430000" unicode="&#x2550;" 
d="M1478 724h-1496v175h1496v-175zM1478 344h-1496v175h1496v-175z" />
    <glyph glyph-name="SF240000" unicode="&#x2551;" 
d="M833 -621v2485h175v-2485h-175zM453 -621v2485h175v-2485h-175z" />
    <glyph glyph-name="SF510000" unicode="&#x2552;" 
d="M643 -621v1520h836v-175h-661v-205h661v-175h-661v-965h-175z" />
    <glyph glyph-name="SF520000" unicode="&#x2553;" 
d="M453 -621v1330h1026v-175h-471v-1155h-175v1140h-205v-1140h-175z" />
    <glyph glyph-name="SF390000" unicode="&#x2554;" 
d="M628 -621h-175v1520h1025v-175h-850v-1345zM1008 344v-965h-175v1140h645v-175h-470z" />
    <glyph glyph-name="SF220000" unicode="&#x2555;" 
d="M642 344h-660v175h660v205h-660v175h835v-1520h-175v965z" />
    <glyph glyph-name="SF210000" unicode="&#x2556;" 
d="M452 -621v1155h-470v175h1025v-1330h-175v1155h-205v-1155h-175z" />
    <glyph glyph-name="SF250000" unicode="&#x2557;" 
d="M832 -621v1345h-850v175h1025v-1520h-175zM452 344h-470v175h645v-1140h-175v965z" />
    <glyph glyph-name="SF500000" unicode="&#x2558;" 
d="M643 344v1520h175v-965h661v-175h-661v-205h661v-175h-836z" />
    <glyph glyph-name="SF490000" unicode="&#x2559;" 
d="M1478 534h-1025v1330h175v-1155h205v1155h175v-1155h470v-175z" />
    <glyph glyph-name="SF380000" unicode="&#x255a;" 
d="M628 1864v-1345h850v-175h-1025v1520h175zM1008 899h470v-175h-645v1140h175v-965z" />
    <glyph glyph-name="SF280000" unicode="&#x255b;" 
d="M817 344h-835v175h660v205h-660v175h660v965h175v-1520z" />
    <glyph glyph-name="SF270000" unicode="&#x255c;" 
d="M1007 534h-1025v175h470v1155h175v-1155h205v1155h175v-1330z" />
    <glyph glyph-name="SF260000" unicode="&#x255d;" 
d="M832 1864h175v-1520h-1025v175h850v1345zM452 899v965h175v-1140h-645v175h470z" />
    <glyph glyph-name="SF360000" unicode="&#x255e;" 
d="M643 -621v2485h175v-965h661v-175h-661v-205h661v-175h-661v-965h-175z" />
    <glyph glyph-name="SF370000" unicode="&#x255f;" 
d="M833 -621v2485h175v-1155h471v-175h-471v-1155h-175zM453 -621v2485h175v-2485h-175z" />
    <glyph glyph-name="SF420000" unicode="&#x2560;" 
d="M453 -621v2485h175v-2485h-175zM833 724v1140h175v-965h471v-175h-646zM833 -621v1140h646v-175h-471v-965h-175z" />
    <glyph glyph-name="SF190000" unicode="&#x2561;" 
d="M642 344h-660v175h660v205h-660v175h660v965h175v-2485h-175v965z" />
    <glyph glyph-name="SF200000" unicode="&#x2562;" 
d="M452 -621v1155h-470v175h470v1155h175v-2485h-175zM832 -621v2485h175v-2485h-175z" />
    <glyph glyph-name="SF230000" unicode="&#x2563;" 
d="M832 -621v2485h175v-2485h-175zM627 1864v-1140h-645v175h470v965h175zM452 344h-470v175h645v-1140h-175v965z" />
    <glyph glyph-name="SF470000" unicode="&#x2564;" 
d="M1478 724h-1496v175h1496v-175zM642 344h-660v175h1496v-175h-661v-965h-175v965z" />
    <glyph glyph-name="SF480000" unicode="&#x2565;" 
d="M452 -621v1155h-470v175h1496v-175h-471v-1155h-175v1140h-205v-1140h-175z" />
    <glyph glyph-name="SF410000" unicode="&#x2566;" 
d="M1478 724h-1496v175h1496v-175zM452 344h-470v175h645v-1140h-175v965zM832 -621v1140h646v-175h-471v-965h-175z" />
    <glyph glyph-name="SF450000" unicode="&#x2567;" 
d="M1478 724h-1496v175h660v965h175v-965h661v-175zM1478 344h-1496v175h1496v-175z" />
    <glyph glyph-name="SF460000" unicode="&#x2568;" 
d="M1478 534h-1496v175h470v1155h175v-1155h205v1155h175v-1155h471v-175z" />
    <glyph glyph-name="SF400000" unicode="&#x2569;" 
d="M627 724h-645v175h470v965h175v-1140zM1478 724h-646v1140h175v-965h471v-175zM1478 344h-1496v175h1496v-175z" />
    <glyph glyph-name="SF540000" unicode="&#x256a;" 
d="M642 344h-660v175h660v205h-660v175h660v965h175v-965h661v-175h-661v-205h661v-175h-661v-965h-175v965z" />
    <glyph glyph-name="SF530000" unicode="&#x256b;" 
d="M452 -621v1155h-470v175h470v1155h175v-1155h205v1155h175v-1155h471v-175h-471v-1155h-175v1155h-205v-1155h-175z" />
    <glyph glyph-name="SF440000" unicode="&#x256c;" 
d="M1008 899h470v-175h-645v1140h175v-965zM452 899v965h175v-1140h-645v175h470zM452 344h-470v175h645v-1140h-175v965zM1008 344v-965h-175v1140h645v-175h-470z" />
    <glyph glyph-name="upblock" unicode="&#x2580;" 
d="M1478 621h-1496v1243h1496v-1243z" />
    <glyph glyph-name="dnblock" unicode="&#x2584;" 
d="M1478 -621h-1496v1242h1496v-1242z" />
    <glyph glyph-name="block" unicode="&#x2588;" 
d="M-18 -621v2485h1496v-2485h-1496z" />
    <glyph glyph-name="lfblock" unicode="&#x258c;" 
d="M-18 -621v2485h748v-2485h-748z" />
    <glyph glyph-name="rtblock" unicode="&#x2590;" 
d="M730 -621v2485h748v-2485h-748z" />
    <glyph glyph-name="ltshade" unicode="&#x2591;" 
d="M107 1864h125v-125h-125v125zM605 1864h125v-125h-125v125zM1104 1864h125v-125h-125v125zM356 1615h125v-125h-125v125zM855 1615h124v-125h-124v125zM1353 1615h125v-125h-125v125zM1104 1366h125v-125h-125v125zM605 1366h125v-125h-125v125zM107 1366h125v-125h-125
v125zM1353 1116h125v-124h-125v124zM855 1116h124v-124h-124v124zM356 1116h125v-124h-125v124zM107 867h125v-125h-125v125zM605 867h125v-125h-125v125zM1104 867h125v-125h-125v125zM1353 618h125v-125h-125v125zM855 618h124v-125h-124v125zM356 618h125v-125h-125v125z
M107 369h125v-125h-125v125zM605 369h125v-125h-125v125zM1104 369h125v-125h-125v125zM356 119h125v-124h-125v124zM855 119h124v-124h-124v124zM1353 119h125v-124h-125v124zM1104 -130h125v-125h-125v125zM605 -130h125v-125h-125v125zM107 -130h125v-125h-125v125z
M356 -379h125v-125h-125v125zM855 -379h124v-125h-124v125zM1353 -379h125v-125h-125v125z" />
    <glyph glyph-name="shade" unicode="&#x2592;" 
d="M107 1864h124v-125h-124v125zM356 1864h124v-125h-124v125zM605 1864h125v-125h-125v125zM854 1864h125v-125h-125v125zM1104 1864h124v-125h-124v125zM1353 1864h124v-125h-124v125zM-18 1615h125v-125h-125v125zM231 1615h125v-125h-125v125zM480 1615h125v-125h-125
v125zM730 1615h124v-125h-124v125zM979 1615h125v-125h-125v125zM1228 1615h125v-125h-125v125zM107 1366h124v-125h-124v125zM356 1366h124v-125h-124v125zM605 1366h125v-125h-125v125zM854 1366h125v-125h-125v125zM1104 1366h124v-125h-124v125zM1353 1366h124v-125
h-124v125zM-18 1116h125v-124h-125v124zM231 1116h125v-124h-125v124zM480 1116h125v-124h-125v124zM730 1116h124v-124h-124v124zM979 1116h125v-124h-125v124zM1228 1116h125v-124h-125v124zM107 867h124v-125h-124v125zM356 867h124v-125h-124v125zM605 867h125v-125
h-125v125zM854 867h125v-125h-125v125zM1104 867h124v-125h-124v125zM1353 867h124v-125h-124v125zM-18 618h125v-125h-125v125zM480 618h125v-125h-125v125zM730 618h124v-125h-124v125zM979 618h125v-125h-125v125zM1228 618h125v-125h-125v125zM231 618h125v-125h-125
v125zM1353 369h124v-125h-124v125zM1104 369h124v-125h-124v125zM854 369h125v-125h-125v125zM605 369h125v-125h-125v125zM356 369h124v-125h-124v125zM107 369h124v-125h-124v125zM-18 119h125v-124h-125v124zM231 119h125v-124h-125v124zM480 119h125v-124h-125v124z
M730 119h124v-124h-124v124zM979 119h125v-124h-125v124zM1228 119h125v-124h-125v124zM1353 -130h124v-125h-124v125zM1104 -130h124v-125h-124v125zM854 -130h125v-125h-125v125zM605 -130h125v-125h-125v125zM356 -130h124v-125h-124v125zM107 -130h124v-125h-124v125z
M-18 -379h125v-125h-125v125zM231 -379h125v-125h-125v125zM480 -379h125v-125h-125v125zM730 -379h124v-125h-124v125zM979 -379h125v-125h-125v125zM1228 -379h125v-125h-125v125z" />
    <glyph glyph-name="dkshade" unicode="&#x2593;" horiz-adv-x="1495" 
d="M1495 1490v-374h-124v-124h124v-374h-124v-125h124v-374h-124v-124h124v-374h-124v-125h124v-124h-1495v373h125v125h-125v374h125v125h-125v373h125v125h-125v374h125v125h-125v373h125v125h124v-125h125v125h124v-125h125v125h125v-125h124v125h125v-125h125v125h124
v-125h125v125h124v-249h-124v-125h124zM125 1615v-125h124v125h-124zM374 1615v-125h124v125h-124zM623 1615v-125h125v125h-125zM872 1615v-125h125v125h-125zM1122 1615v-125h124v125h-124zM1371 1366h-125v-125h125v125zM1122 1366h-125v-125h125v125zM872 1366h-124
v-125h124v125zM623 1366h-125v-125h125v125zM374 1366h-125v-125h125v125zM125 1116v-124h124v124h-124zM374 1116v-124h124v124h-124zM623 1116v-124h125v124h-125zM872 1116v-124h125v124h-125zM1122 1116v-124h124v124h-124zM374 867h-125v-125h125v125zM498 867v-125
h125v125h-125zM748 867v-125h124v125h-124zM997 867v-125h125v125h-125zM1246 867v-125h125v125h-125zM125 618v-125h124v125h-124zM623 618v-125h125v125h-125zM498 493v125h-124v-125h124zM872 618v-125h125v125h-125zM1122 618v-125h124v125h-124zM1371 244v125h-125
v-125h125zM1122 244v125h-125v-125h125zM872 244v125h-124v-125h124zM623 244v125h-125v-125h125zM374 244v125h-125v-125h125zM125 119v-124h124v124h-124zM374 119v-124h124v124h-124zM623 119v-124h125v124h-125zM872 119v-124h125v124h-125zM1122 119v-124h124v124h-124
zM1371 -255v125h-125v-125h125zM1122 -255v125h-125v-125h125zM872 -255v125h-124v-125h124zM623 -255v125h-125v-125h125zM374 -255v125h-125v-125h125zM125 -379v-125h124v125h-124zM374 -379v-125h124v125h-124zM623 -379v-125h125v125h-125zM872 -379v-125h125v125h-125
zM1122 -379v-125h124v125h-124z" />
    <glyph glyph-name="filledbox" unicode="&#x25a0;" horiz-adv-x="1237" 
d="M146 944h944v-944h-944v944z" />
    <glyph glyph-name="filledrect" unicode="&#x25ac;" horiz-adv-x="2048" 
d="M0 703h2047v-386h-2047v386z" />
    <glyph glyph-name="triagup" unicode="&#x25b2;" horiz-adv-x="2027" 
d="M304 0l710 1419l710 -1419h-1420z" />
    <glyph glyph-name="triagrt" unicode="&#x25ba;" horiz-adv-x="2027" 
d="M288 1417l1451 -724l-1451 -724v1448z" />
    <glyph glyph-name="triagdn" unicode="&#x25bc;" horiz-adv-x="2027" 
d="M1724 1388l-710 -1419l-710 1419h1420z" />
    <glyph glyph-name="triaglf" unicode="&#x25c4;" horiz-adv-x="2027" 
d="M1739 1417v-1448l-1451 724z" />
    <glyph glyph-name="circle" unicode="&#x25cb;" horiz-adv-x="1229" 
d="M1055 578q0 -182 -129.5 -311.5t-310.5 -129.5q-183 0 -312 129t-129 312q0 182 129.5 311t310.5 129q183 0 312 -129t129 -311zM979 578q0 150 -107 257t-257 107q-151 0 -258 -107.5t-107 -256.5t107 -257t258 -108q150 0 257 107.5t107 257.5z" />
    <glyph glyph-name="invbullet" unicode="&#x25d8;" horiz-adv-x="1229" 
d="M124 0v980h980v-980h-980zM816 490q0 83 -59 142.5t-143 59.5q-82 0 -142 -59t-60 -143q0 -83 59.5 -142.5t142.5 -59.5q84 0 143 60t59 142z" />
    <glyph glyph-name="invcircle" unicode="&#x25d9;" horiz-adv-x="1229" 
d="M38 0v1155h1155v-1155h-1155zM1056 577q0 181 -129.5 311t-310.5 130q-183 0 -312 -130t-129 -311t129 -310.5t312 -129.5q181 0 310.5 129.5t129.5 310.5zM980 577q0 -150 -107 -257t-257 -107q-151 0 -258 107t-107 257q0 151 107.5 258t257.5 107t257 -106.5
t107 -258.5z" />
    <glyph glyph-name="smileface" unicode="&#x263a;" horiz-adv-x="2091" 
d="M1683 518q0 -262 -187 -449.5t-450 -187.5q-264 0 -451 186.5t-187 450.5q0 263 187.5 450.5t450.5 187.5q264 0 450.5 -186.5t186.5 -451.5zM1591 518q0 225 -160.5 385t-384.5 160q-225 0 -385 -160t-160 -385q0 -224 160 -384t385 -160q224 0 384.5 160t160.5 384z
M882 650q0 -33 -23.5 -57t-57.5 -24q-33 0 -57 24t-24 57q0 34 24 57.5t57 23.5q34 0 57.5 -23.5t23.5 -57.5zM1371 650q0 -33 -24 -57t-57 -24t-57 24t-24 57q0 34 24 57.5t57 23.5t57 -23.5t24 -57.5zM752 313l62 36q79 -144 232 -144t231 144l63 -36q-104 -195 -294 -195
q-191 0 -294 195z" />
    <glyph glyph-name="invsmileface" unicode="&#x263b;" horiz-adv-x="2155" 
d="M1715 518q0 -262 -187 -449.5t-450 -187.5q-264 0 -451 186.5t-187 450.5q0 263 187.5 450.5t450.5 187.5q264 0 450.5 -186.5t186.5 -451.5zM914 650q0 34 -23.5 57.5t-57.5 23.5q-33 0 -57 -23.5t-24 -57.5q0 -33 24 -57t57 -24q34 0 57.5 24t23.5 57zM1403 650
q0 34 -24 57.5t-57 23.5t-57 -23.5t-24 -57.5q0 -33 24 -57t57 -24t57 24t24 57zM784 313q103 -195 294 -195q190 0 294 195l-63 36q-78 -144 -231 -144t-232 144z" />
    <glyph glyph-name="sun" unicode="&#x263c;" horiz-adv-x="1878" 
d="M902 1621h76v-337q191 -7 350 -140l289 283l52 -53l-286 -286q140 -175 143 -358h336v-69h-336q-14 -190 -143 -348l286 -289l-57 -51l-284 280q-167 -125 -350 -139v-337h-76v337q-203 25 -345 139l-296 -280l-49 51l284 289q-125 153 -144 352h-336v69h336
q14 197 144 349l-284 287l49 57l291 -283q180 130 350 140v337zM1450 699q0 212 -150.5 362t-362.5 150q-211 0 -361.5 -150.5t-150.5 -361.5t150.5 -362t361.5 -151t362 151t151 362z" />
    <glyph glyph-name="female" unicode="&#x2640;" horiz-adv-x="1131" 
d="M591 481v-365h417v-54h-417v-399h-54v399h-418v54h418v365q-81 0 -189.5 51.5t-183.5 167.5t-75 256q0 196 139.5 336t336.5 140q196 0 336 -140t140 -336q0 -185 -127.5 -323.5t-322.5 -151.5zM992 955q0 176 -125 301t-302 125q-176 0 -301.5 -125.5t-125.5 -300.5
q0 -176 125.5 -301.5t301.5 -125.5t301.5 125.5t125.5 301.5z" />
    <glyph glyph-name="male" unicode="&#x2642;" horiz-adv-x="1366" 
d="M1107 1372l29 -10q35 -359 161 -615l-25 -16q-149 188 -222 415l-295 -635q110 -42 201 -162t91 -268q0 -188 -133 -304t-326 -116q-205 0 -345.5 134.5t-140.5 322.5t130.5 316t306.5 128q76 0 170 -33l293 636q-214 -90 -457 -104v27q165 51 255.5 97.5t306.5 186.5z
M531 516q-158 0 -272 -113.5t-114 -268.5q0 -172 116.5 -282.5t274.5 -110.5q162 0 273.5 113.5t111.5 267.5q0 169 -118.5 281.5t-271.5 112.5z" />
    <glyph glyph-name="spade" unicode="&#x2660;" horiz-adv-x="1092" 
d="M547 1231q18 -82 64.5 -169t203.5 -230q122 -111 169.5 -181t47.5 -152q0 -96 -64.5 -160t-155.5 -64q-154 0 -254 190q0 -230 101 -325.5t277 -102.5l7 -37h-793l8 37q182 0 282.5 105t100.5 282v41q-90 -190 -262 -190q-92 0 -155.5 66t-63.5 155q0 150 188 305
q262 215 299 430z" />
    <glyph glyph-name="club" unicode="&#x2663;" horiz-adv-x="1354" 
d="M1103 0h-848l8 34q153 33 219.5 68.5t125 138.5t58.5 228l-1 42q-55 -117 -143.5 -177.5t-183.5 -60.5q-115 0 -196.5 81t-81.5 199q0 111 72.5 193t169.5 82q64 0 163 -51q-67 106 -67 182q0 113 79 192.5t197 79.5t198.5 -79.5t80.5 -187.5q0 -94 -69 -187
q106 53 162 53q105 0 176 -82t71 -191q0 -120 -81 -201.5t-193 -81.5q-78 0 -167 49.5t-165 187.5q4 -157 48 -250.5t122.5 -144.5t237.5 -82z" />
    <glyph glyph-name="heart" unicode="&#x2665;" horiz-adv-x="1210" 
d="M607 -24q-32 122 -92.5 228.5t-275.5 389.5q-101 133 -140 212t-39 163q0 110 74 185.5t183 75.5q206 0 290 -251q34 129 113.5 190.5t171.5 61.5q109 0 183.5 -75t74.5 -177q0 -84 -40 -179t-174 -264q-284 -360 -329 -560z" />
    <glyph glyph-name="diamond" unicode="&#x2666;" horiz-adv-x="1038" 
d="M517 1231q193 -323 461 -627q-52 -52 -214 -265t-247 -363q-101 190 -457 628q324 383 457 627z" />
    <glyph glyph-name="musicalnote" unicode="&#x266a;" horiz-adv-x="1579" 
d="M926 1535h60q164 -100 366 -309t202 -285q0 -16 -20 -44.5t-39 -28.5q-28 0 -63 44q-55 66 -195 190t-242 188l26 -1374q0 -122 -71.5 -193t-217 -131.5t-291.5 -60.5q-197 0 -306 99t-109 228q0 159 162.5 279t372.5 120q192 0 396 -94z" />
    <glyph glyph-name="musicalnotedbl" unicode="&#x266b;" horiz-adv-x="2048" 
d="M832 1195l934 291v-1301q0 -148 -37.5 -221t-125 -121t-200.5 -48q-145 0 -212.5 77t-67.5 186q0 117 90 202t234 85q84 0 200 -50v850l-699 -217v-981q0 -123 -29.5 -203t-121 -136.5t-216.5 -56.5q-121 0 -199 69t-78 192q0 129 93 210.5t230 81.5q95 0 205 -54v1145z
" />
    <glyph glyph-name="undercommaaccent" unicode="&#xf005;" horiz-adv-x="664" 
d="M233 -127q46 15 95 15q157 0 157 -110q0 -69 -62.5 -113.5t-167.5 -44.5q-62 0 -145 22l22 71q68 -14 104 -14q130 0 130 65q0 43 -73 43q-27 0 -72 -13z" />
    <glyph glyph-name="currency" unicode="&#xa4;" horiz-adv-x="1135" 
d="M42 192l116 114q-61 82 -84.5 153.5t-23.5 154.5q0 89 28 171q21 63 83 140l-120 117l90 91l120 -119q76 59 156.5 85.5t164.5 26.5q81 0 156 -24t156 -82l117 113l88 -91l-116 -112q64 -79 89.5 -153t25.5 -162q0 -86 -24.5 -158.5t-84.5 -150.5l116 -114l-89 -90
l-116 115q-79 -62 -156.5 -88.5t-164.5 -26.5q-86 0 -162.5 26t-158.5 89l-117 -115zM193 612q0 -154 110.5 -263t265.5 -109q156 0 266 110t110 265t-109.5 264.5t-265.5 109.5t-266.5 -110.5t-110.5 -266.5z" />
  </font>
</defs>
</svg>
